<?xml version="1.0" standalone="no"?>
<!DOCTYPE svg PUBLIC "-//W3C//DTD SVG 1.1//EN" "http://www.w3.org/Graphics/SVG/1.1/DTD/svg11.dtd" >
<svg xmlns="http://www.w3.org/2000/svg">
<metadata>
This is a custom SVG font generated by IcoMoon.
<iconset grid="16"></iconset>
</metadata>
<defs>
<font id="glyphs" horiz-adv-x="512" >
<font-face units-per-em="512" ascent="480" descent="-32" />
<missing-glyph horiz-adv-x="512" />
<glyph class="hidden" unicode="&#xf000;" d="M0,480L 512 -32L0 -32 z" horiz-adv-x="0" />
<glyph unicode="&#xe000;" d="M 7.68,121.6l 117.76,204.8l 117.76-204.8l-235.52,0 z" horiz-adv-x="250" data-tags="up-dir" />
<glyph unicode="&#xe001;" d="M 7.68,341.76l 204.8-117.76l-204.8-117.76l0,235.52 z" horiz-adv-x="220" data-tags="right-dir" />
<glyph unicode="&#xe002;" d="M 243.2,326.4l-117.76-204.8l-117.76,204.8l 235.52,0 z" horiz-adv-x="250" data-tags="down-dir" />
<glyph unicode="&#xe003;" d="M 212.48,341.76l0-235.52 l-204.8,117.76z" horiz-adv-x="220" data-tags="left-dir" />
<glyph unicode="&#xe004;" d="M 0.256,287.232q 2.304,6.912 13.568,8.96l 128.512,17.92l 56.832,116.736q 5.12,10.24 12.544,10.24t 12.544-10.24l 57.856-116.736l 127.488-17.92q 11.776-2.048 14.080-8.96t-5.888-15.104l-92.672-90.624l 21.504-126.976q 1.536-8.704 -1.28-13.312t-8.448-4.608q-3.584,0 -10.24,2.56l-114.688,60.416l-114.176-60.416q-6.656-2.56 -10.24-2.56q-6.144,0 -8.96,4.608t-1.28,13.312l 22.016,126.976l-92.672,90.624
q-8.704,8.192 -6.4,15.104zM 73.216,263.424l 53.76-52.736l 15.872-14.336l-3.584-20.992l-13.312-75.264l 67.072,35.84l 18.944,9.728l 18.944-9.728l 66.56-35.84l-12.288,75.264l-4.096,20.992l 15.36,14.336l 54.272,52.736l-74.752,10.752l-20.992,3.584l-9.728,18.944l-33.28,67.584l-33.792-67.584l-8.704-18.944l-21.504-3.584z" horiz-adv-x="423" data-tags="star-empty" />
<glyph unicode="&#xe005;" d="M0,57.088l0,71.168 q0,8.704 5.888,14.336t 14.592,5.632l 78.336,0 q 7.68,0 13.824-5.632t 6.144-14.336l0-71.168 q0-8.704 -6.144-14.592t-13.824-5.888l-78.336,0 q-8.704,0 -14.592,5.888t-5.888,14.592zM0,209.152l0,59.392 q0,8.704 5.888,14.336t 14.592,5.632l 78.336,0 q 7.68,0 13.824-5.632t 6.144-14.336l0-59.392 q0-8.704 -6.144-14.592t-13.824-5.888l-78.336,0 q-8.704,0 -14.592,5.888t-5.888,14.592zM0,349.44l0,71.68 
q0,8.192 5.888,14.080t 14.592,5.888l 78.336,0 q 7.68,0 13.824-5.888t 6.144-14.080l0-71.68 q0-8.704 -6.144-14.592t-13.824-5.888l-78.336,0 q-8.704,0 -14.592,5.888t-5.888,14.592zM 159.232,57.088l0,71.168 q0,8.704 5.888,14.336t 14.592,5.632l 285.184,0 q 8.192,0 14.080-5.632t 5.888-14.336l0-71.168 q0-8.704 -5.888-14.592t-14.080-5.888l-285.184,0 q-8.704,0 -14.592,5.888t-5.888,14.592zM 159.232,209.152
l0,59.392 q0,8.704 5.888,14.336t 14.592,5.632l 285.184,0 q 8.192,0 14.080-5.632t 5.888-14.336l0-59.392 q0-8.704 -5.888-14.592t-14.080-5.888l-285.184,0 q-8.704,0 -14.592,5.888t-5.888,14.592zM 159.232,349.44l0,71.68 q0,8.192 5.888,14.080t 14.592,5.888l 285.184,0 q 8.192,0 14.080-5.888t 5.888-14.080l0-71.68 q0-8.704 -5.888-14.592t-14.080-5.888l-285.184,0 q-8.704,0 -14.592,5.888
t-5.888,14.592z" horiz-adv-x="484" data-tags="th-list" />
<glyph unicode="&#xe006;" d="M 411.648,372.992q 35.84-33.28 35.84-79.872t-35.84-79.872l-183.808-168.96l-183.808,168.96q-35.84,33.28 -35.84,79.872t 35.84,79.872q 32.256,29.696 77.312,29.696t 77.312-29.696l 29.184-26.624l 29.184,26.624q 32.256,29.696 77.312,29.696t 77.312-29.696z" horiz-adv-x="455" data-tags="heart" />
<glyph unicode="&#xe007;" d="M 0.512,150.784l 18.432,77.824q 1.024,4.096 1.024,9.472t-1.024,9.984l-18.432,77.312q-1.024,4.608 1.024,7.424t 6.656,2.816l 24.064,0 q 4.608,0 9.472-2.304t 7.424-5.376l 45.568-59.392q 24.064,4.608 49.92,7.424t 50.432,2.816l 6.656,0 l-33.28,152.576q-1.024,4.096 1.536,6.912t 6.656,2.816l 34.816,0 q 4.096,0 8.448-2.56t 6.4-6.144l 88.576-153.6l 84.48,0 q 15.872,0 31.488-3.584t 27.648-9.216t 19.456-12.8t 6.912-14.848q 0.512-7.68 -6.912-14.848t-19.456-12.8
t-27.648-9.216t-31.488-3.584l-84.992,0 l-88.064-152.576q-2.048-3.584 -6.4-6.144t-8.448-2.56l-34.816,0 q-4.096,0 -6.656,2.816t-1.536,6.912l 33.28,151.552l-6.656,0 q-24.576,0 -50.432,3.072t-49.92,7.168l-45.568-59.392q-6.656-7.68 -16.896-7.68l-24.064,0 q-4.608,0 -6.656,2.816t-1.024,6.912z" horiz-adv-x="484" data-tags="flight" />
<glyph unicode="&#xe008;" d="M 180.224,50.432l-171.008,169.984l 80.896,81.92l 90.112-89.088l 204.8,205.312l 81.408-81.92z" horiz-adv-x="475" data-tags="ok" />
<glyph unicode="&#xe009;" d="M0,87.296q0,10.24 7.68,17.92l 133.632,134.144l-133.632,131.584q-7.68,7.68 -7.68,17.92t 7.68,17.408l 26.112,26.624q 7.68,7.68 17.92,7.68t 17.92-7.68l 132.608-132.608l 132.608,132.608q 7.168,7.68 17.408,7.68t 17.92-7.68l 26.624-26.624q 7.168-7.168 7.168-17.408t-7.168-17.92l-133.632-134.144l 133.632-131.584q 7.168-7.68 7.168-17.664t-7.168-17.664l-26.624-26.624q-7.68-7.68 -17.92-7.68t-17.408,7.68l-132.608,133.12l-133.12-133.12
q-7.68-7.68 -17.664-7.68t-17.664,7.68l-26.112,26.112q-7.68,7.68 -7.68,17.92z" horiz-adv-x="403" data-tags="cancel" />
<glyph unicode="&#xe00a;" d="M0,239.36q0,38.912 14.848,76.032t 44.544,66.816t 66.816,44.288t 76.032,14.592t 76.032-14.592t 66.816-44.288t 44.288-66.816t 14.592-76.032t-14.592-76.032t-44.288-66.816t-66.816-44.544t-76.032-14.848t-76.032,14.848t-66.816,44.544t-44.544,66.816t-14.848,76.032zM 99.84,166.144l 29.696-29.184q 2.56-2.56 5.888-2.56t 5.888,2.56l 61.44,61.44l 55.296-55.808
q 2.56-3.072 5.888-3.072t 5.888,3.072l 28.672,28.16q 6.144,6.144 0,11.776l-55.808,55.808l 61.952,61.952q 5.632,6.144 0,11.776l-29.696,29.696q-6.144,6.144 -11.776,0l-61.44-61.952l-56.32,55.808q-5.632,6.144 -11.776,0l-28.16-28.16q-2.56-3.072 -2.56-6.144t 2.56-6.144l 55.808-55.296l-61.44-61.952q-5.632-5.632 0-11.776z" horiz-adv-x="403" data-tags="cancel-circle" />
<glyph unicode="&#xe00b;" d="M0,238.848q0,41.984 15.872,78.592t 43.264,64.256t 64.256,43.52t 78.848,15.872t 78.592-15.872t 64-43.52t 43.264-64.256t 15.872-78.592t-15.872-78.592t-43.264-64.256t-64-43.52t-78.592-15.872t-78.848,15.872t-64.256,43.52t-43.264,64.256t-15.872,78.592zM 85.504,218.88q0-3.584 2.56-6.144t 5.632-2.56l 216.576,0 q 3.584,0 5.888,2.56t 2.304,6.144l0,39.936 q0,3.072 -2.304,5.632t-5.888,2.56l-216.576,0 
q-3.072,0 -5.632-2.56t-2.56-5.632l0-39.936 z" horiz-adv-x="403" data-tags="minus-circle" />
<glyph unicode="&#xe00c;" d="M 387.072,96l0,82.432 l-379.392,0 l0,91.136 l 379.392,0 l0,82.432 l 122.368-128z" horiz-adv-x="517" data-tags="right-thin" />
<glyph unicode="&#xe00d;" d="M 217.088,433.92q 84.992,0 145.92-59.648t 62.976-145.152l 62.976,0 l-94.208-104.96l-94.208,104.96l 73.216,0 q-2.048,63.488 -47.616,107.776t-109.056,44.288q-65.024,0 -111.104-46.080t-46.080-111.104t 46.080-111.36t 111.104-46.336q 50.176,0 92.672,30.72l 35.84-38.4q-56.832-44.544 -128.512-44.544q-86.528,0 -147.968,61.44t-61.44,148.48t 61.44,148.48t 147.968,61.44z" horiz-adv-x="496" data-tags="cw" />
<glyph unicode="&#xe00e;" d="M 251.904,142.592l 32.768,32.768l-74.24,74.24l 74.24,74.24l-32.768,32.768l-107.008-107.008zM 460.8,249.6q0-62.464 -30.976-115.456t-83.968-83.968t-115.456-30.976t-115.456,30.976t-83.968,83.968t-30.976,115.456t 30.976,115.456t 83.968,83.968t 115.456,30.976t 115.456-30.976t 83.968-83.968t 30.976-115.456z" horiz-adv-x="460" data-tags="left-circle" />
<glyph unicode="&#xe00f;" d="M 208.896,142.592l 107.008,107.008l-107.008,107.008l-32.768-32.768l 74.24-74.24l-74.24-74.24zM 460.8,249.6q0-62.464 -30.976-115.456t-83.968-83.968t-115.456-30.976t-115.456,30.976t-83.968,83.968t-30.976,115.456t 30.976,115.456t 83.968,83.968t 115.456,30.976t 115.456-30.976t 83.968-83.968t 30.976-115.456z" horiz-adv-x="460" data-tags="right-circle" />
<glyph unicode="&#xe010;" d="M 245.76,368.384q-40.448,0 -61.184-21.248t-20.736-61.696l 66.56,0 q0,29.696 14.848,29.696q 13.824,0 13.824-29.696q0-33.792 -35.84-33.792q-5.632,0 -10.24,0.512l0-62.976 l 66.56,0 l0,26.624 q 49.152,12.8 49.152,69.632q0,36.352 -23.296,59.648t-59.648,23.296zM 246.272,161.536q-15.872,0 -27.392-12.032t-11.52-27.904t 11.52-27.904t 27.392-12.032t 27.648,12.032t 11.776,27.904t-11.776,27.904t-27.648,12.032zM 246.272,439.552
q 86.016,0 147.2-60.672t 61.184-147.2q0-85.504 -61.184-146.688t-147.2-61.184q-86.528,0 -147.2,61.184t-60.672,146.688q0,86.528 60.672,147.2t 147.2,60.672z" horiz-adv-x="492" data-tags="help-circle" />
<glyph unicode="&#xe011;" d="M 391.68,321.28q 20.992,0 36.096-15.104t 15.104-36.096l0-148.48 q0-20.992 -15.104-36.096t-36.096-15.104l-353.28,0 l0,71.68 l 332.8,0 l0,107.52 l-256,0 l0-56.32 l-107.52,92.16l 107.52,92.16l0-56.32 l 276.48,0 z" horiz-adv-x="450" data-tags="back" />
<glyph unicode="&#xe012;" d="M 55.296,75.008l 92.16,0 l0,92.16 l-92.16,0 l0-92.16 zM 202.752,222.464l0-202.752 l-202.752,0 l0,202.752 l 202.752,0 zM 313.344,75.008l 92.16,0 l0,92.16 l-92.16,0 l0-92.16 zM 460.8,222.464l0-202.752 l-202.752,0 l0,202.752 l 202.752,0 zM 55.296,333.056l 92.16,0 l0,92.16 l-92.16,0 l0-92.16 zM 202.752,480.512l0-202.752 l-202.752,0 l0,202.752 l 202.752,0 zM 313.344,333.056l 92.16,0 l0,92.16 l-92.16,0 l0-92.16 zM 460.8,480.512l0-202.752 l-202.752,0 l0,202.752 l 202.752,0 z" horiz-adv-x="460" data-tags="products-multicolumns" />
<glyph unicode="&#xe013;" d="M 507.392,344.832q 15.36,0 26.88-11.776t 11.52-27.648l0-187.904 q0-15.872 -11.52-27.648t-26.88-11.776l-38.912,0 l 17.408-78.336l-353.792,0 l 13.824,78.336l-42.496,0 q-16.896,0 -28.16,11.52t-11.264,27.904l0,187.904 q0,16.384 11.264,27.904t 28.16,11.52l 49.664,0 l0,60.416 l 16.896,0 l0,65.536 l 270.336,0 l0-65.536 l 17.408,0 l0-60.416 l 49.664,0 zM 188.416,446.72l0-148.992 l 233.984,0 l0,148.992 l-233.984,0 zM 130.56,247.552q 11.776,0 19.968,8.192t 8.192,19.456q0,10.752 -8.192,19.2t-19.968,8.448
q-10.752,0 -19.2-8.448t-8.448-19.2q0-11.264 8.448-19.456t 19.2-8.192zM 162.816,23.808l 290.304,0 l-24.064,123.392l-247.808,0 zM 291.84,81.152l0,17.92 l-71.168,0 l0-17.92 l 71.168,0 zM 393.216,81.152l0,17.92 l-71.168,0 l0-17.92 l 71.168,0 z" horiz-adv-x="609" data-tags="print" />
<glyph unicode="&#xe014;" d="M0,297.216q0,29.696 15.616,55.808t 42.24,45.568t 62.464,30.976t 76.8,11.52t 76.8-11.52t 62.464-30.976t 41.984-45.568t 15.36-55.808q0-30.208 -15.36-56.32t-41.984-45.568t-62.464-30.72t-76.8-11.264q-9.728,0 -18.688,0.768t-18.176,1.792q-18.432-14.336 -39.424-24.576t-45.568-15.36q-10.752-2.56 -21.504-3.072q-6.144-1.024 -8.704,5.632l0,0.512 q-1.024,3.072 1.024,5.12l 4.096,4.096q 9.216,9.216 16.128,19.968t 11.52,34.304
q-35.84,19.456 -56.832,49.152t-20.992,65.536zM 164.352,109.824l 6.656,4.096q 6.656-1.024 13.312-1.024l 12.8,0 q 50.176,0 93.44,14.080t 75.264,38.912t 50.176,58.624t 18.176,72.704q0,10.24 -1.536,20.992q 24.576-19.456 38.4-44.032t 13.824-53.248q0-35.328 -20.992-64.768t-56.32-49.408q 4.096-23.552 11.264-34.048t 15.872-19.712q 2.56-2.56 4.352-4.864t 0.768-4.864q-0.512-3.072 -3.328-5.12t-5.376-1.536q-5.632,1.024 -10.752,1.792t-10.752,2.304
q-47.616,10.24 -84.48,38.912q-9.216-1.024 -18.432-1.792t-18.944-0.768q-35.328,0 -66.304,8.704t-57.088,24.064z" horiz-adv-x="484" data-tags="chat" />
<glyph unicode="&#xe015;" d="M 132.096,418.56l 422.912,0 l0-323.072 q0-22.528 -16.64-39.68t-37.12-17.152l-367.616,0 q-69.632,0 -69.632,80.896l0,236.544 l 68.096,0 l0,62.464 zM 132.096,119.552l0,201.728 l-33.792,0 l0-201.728 q0-43.52 16.384-43.52q 17.408,0 17.408,43.52zM 520.192,95.488l0,288.256 l-353.792,0 l0-264.192 q0-27.648 -9.728-46.592l 344.576,0 q 8.192,0 13.568,7.424t 5.376,15.104zM 302.592,164.608l0-11.776 l-81.408,0 l0,11.776 l 81.408,0 zM 302.592,127.744l0-11.264 l-81.408,0 l0,11.264 l 81.408,0 zM 334.848,144.128
l0,130.048 l 136.192,0 l0-130.048 l-136.192,0 zM 302.592,236.288l0-11.776 l-81.408,0 l0,11.776 l 81.408,0 zM 302.592,199.424l0-11.264 l-81.408,0 l0,11.264 l 81.408,0 zM 302.592,274.176l0-11.776 l-81.408,0 l0,11.776 l 81.408,0 zM 233.472,311.040l0,22.528 l 212.992,0 l0-22.528 l-212.992,0 z" horiz-adv-x="618" data-tags="article-alt" />
<glyph unicode="&#xe016;" d="M 340.48,352q 10.752,0 18.176-7.424t 7.424-18.176l0-307.2 q0-10.752 -7.424-18.176t-18.176-7.424l-204.8,0 q-10.752,0 -18.176,7.424t-7.424,18.176l0,76.8 l-76.8,0 q-10.752,0 -18.176,7.424t-7.424,18.176l0,307.2 q0,10.752 7.424,18.176t 18.176,7.424l 204.8,0 q 10.752,0 18.176-7.424t 7.424-18.176l0-76.8 l 76.8,0 zM 58.88,147.2l 51.2,0 l0,179.712 q0,10.752 7.168,17.92t 17.92,7.168l 77.312,0 l0,51.2 
l-153.6,0 l0-256 zM 314.88,44.8l0,256 l-153.6,0 l0-256 l 153.6,0 z" horiz-adv-x="373" data-tags="docs" />
<glyph unicode="&#xe017;" d="M 78.848,273.664q0,78.848 54.784,128.512q 49.664,54.784 128.256,54.784t 128.768-54.784q 54.784-49.664 55.296-128.512q0-44.544 -18.432-81.408l 73.216-73.216q 15.872-18.432 15.872-41.984t-18.432-39.424q-15.872-18.432 -39.424-18.432t-41.984,15.872l-73.216,73.216q-36.864-18.432 -81.408-18.432q-78.848,0 -128.512,55.296q-54.784,49.664 -54.784,128.512zM 131.072,273.408q0-52.48 39.424-91.648t 91.648-39.168t 91.648,39.168t 39.424,91.648
t-39.424,91.904t-91.648,39.424t-91.648-39.424t-39.424-91.904zM 183.296,247.040l0,52.736 l 52.736,0 l0,52.736 l 52.224,0 l0-52.736 l 52.224,0 l0-52.736 l-52.224,0 l0-52.224 l-52.224,0 l0,52.224 l-52.736,0 z" horiz-adv-x="628" data-tags="zoom-in" />
<glyph unicode="&#xe018;" d="M 78.848,273.664q0,78.848 54.784,128.512q 49.664,54.784 128.256,54.784t 128.768-54.784q 54.784-49.664 55.296-128.512q0-44.544 -18.432-81.408l 73.216-73.216q 15.872-18.432 15.872-41.984t-18.432-39.424q-15.872-18.432 -39.424-18.432t-41.984,15.872l-73.216,73.216q-36.864-18.432 -81.408-18.432q-78.848,0 -128.512,55.296q-54.784,49.664 -54.784,128.512zM 131.072,273.664q0-57.856 39.424-91.648q 39.424-39.424 91.648-39.424t 91.648,39.168t 39.424,91.648
t-39.424,91.904q-33.792,39.424 -91.648,39.424q-52.736,0 -91.904-39.168t-39.168-91.904zM 183.296,247.040l0,52.736 l 157.184,0 l0-52.736 l-157.184,0 z" horiz-adv-x="628" data-tags="zoom-out" />
<glyph unicode="&#xe019;" d="M 296.448,260.864l-120.32-115.2q-8.704-8.704 -19.968-8.704t-19.968,8.704q-110.080,104.448 -120.32,115.2q-7.68,8.192 -7.936,20.48t 7.936,20.992q 18.944,18.944 40.448,0l 99.84-96.256l 99.84,96.256q 21.504,18.944 40.448,0q 8.192-8.704 7.936-20.992t-7.936-20.48z" horiz-adv-x="312" data-tags="down-open" />
<glyph unicode="&#xe01a;" d="M0,238.080q0,9.984 7.68,17.664l 176.64,177.152q 7.68,7.68 17.92,7.68t 17.408-7.68l 26.624-26.624q 7.68-7.168 7.68-17.408t-7.68-17.92l-133.632-134.144l 133.632-131.584q 7.68-7.68 7.68-17.664t-7.68-17.664l-26.624-26.624q-7.168-7.68 -17.408-7.68t-17.92,7.68l-176.64,177.152q-7.68,7.68 -7.68,17.664z" horiz-adv-x="253" data-tags="left-open" />
<glyph unicode="&#xe01b;" d="M0,87.808q0,10.24 7.68,17.92l 133.632,133.632l-133.632,132.096q-7.68,7.68 -7.68,17.664t 7.68,17.152l 26.112,27.136q 7.68,7.68 17.92,7.68t 17.92-7.68l 176.64-177.152q 7.68-7.68 7.68-17.92t-7.68-17.92l-176.64-176.64q-7.68-7.68 -17.92-7.68t-17.92,7.68l-26.112,26.112q-7.68,7.68 -7.68,17.92z" horiz-adv-x="253" data-tags="right-open" />
<glyph unicode="&#xe01c;" d="M 296.448,187.136q 7.68-8.192 7.936-20.48t-7.936-20.992q-18.944-18.944 -40.448,0l-99.84,96.256l-99.84-96.256q-21.504-18.944 -40.448,0q-8.192,8.704 -7.936,20.992t 7.936,20.48l 120.32,115.2q 8.704,8.704 19.968,8.704t 19.968-8.704q 110.080-104.448 120.32-115.2z" horiz-adv-x="312" data-tags="up-open" />
<glyph unicode="&#xe01d;" d="M 108.544,195.328l-108.544,108.544l 217.088,0 z" horiz-adv-x="216" data-tags="down-micro" />
<glyph unicode="&#xe01e;" d="M 217.088,195.328l-217.088,0 l 108.544,108.544z" horiz-adv-x="216" data-tags="up-micro" />
<glyph unicode="&#xe01f;" d="M 57.856,364.288l 115.2-120.32q 8.704-8.704 8.704-19.968t-8.704-19.968q-104.448-110.080 -115.2-120.32q-8.192-7.68 -20.48-7.936t-20.992,7.936q-18.944,18.944 0,40.448l 96.256,99.84l-96.256,99.84q-18.944,21.504 0,40.448q 8.704,8.192 20.992,7.936t 20.48-7.936z" horiz-adv-x="189" data-tags="right-open-thin" />
<glyph unicode="&#xe020;" d="M 131.584,364.288q 8.192,7.68 20.48,7.936t 20.992-7.936q 18.944-18.944 0-40.448l-96.256-99.84l 96.256-99.84q 18.944-21.504 0-40.448q-8.704-8.192 -20.992-7.936t-20.48,7.936l-115.2,120.32q-8.704,8.704 -8.704,19.968t 8.704,19.968q 104.448,110.080 115.2,120.32z" horiz-adv-x="189" data-tags="left-open-thin" />
<glyph unicode="&#xe021;" d="M 55.296,75.008l 92.16,0 l0,92.16 l-92.16,0 l0-92.16 zM 202.752,222.464l0-202.752 l-202.752,0 l0,202.752 l 202.752,0 zM 460.8,93.44l0-73.728 l-202.752,0 l0,73.728 l 202.752,0 zM 55.296,333.056l 92.16,0 l0,92.16 l-92.16,0 l0-92.16 zM 202.752,480.512l0-202.752 l-202.752,0 l0,202.752 l 202.752,0 zM 460.8,222.464l0-73.728 l-202.752,0 l0,73.728 l 202.752,0 zM 460.8,351.488l0-73.728 l-202.752,0 l0,73.728 l 202.752,0 zM 460.8,480.512l0-73.728 l-202.752,0 l0,73.728 l 202.752,0 z" horiz-adv-x="460" data-tags="products-without-options" />
<glyph unicode="&#xe022;" d="M 460.8,93.44l0-73.728 l-460.8,0 l0,73.728 l 460.8,0 zM 460.8,222.464l0-73.728 l-460.8,0 l0,73.728 l 460.8,0 zM 460.8,351.488l0-73.728 l-460.8,0 l0,73.728 l 460.8,0 zM 460.8,480.512l0-73.728 l-460.8,0 l0,73.728 l 460.8,0 z" horiz-adv-x="460" data-tags="short-list" />
<glyph unicode="&#xe023;" d="M0,238.848q0,41.984 15.872,78.592t 43.264,64.256t 64.256,43.52t 78.848,15.872t 78.592-15.872t 64-43.52t 43.264-64.256t 15.872-78.592t-15.872-78.592t-43.264-64.256t-64-43.52t-78.592-15.872t-78.848,15.872t-64.256,43.52t-43.264,64.256t-15.872,78.592zM 85.504,218.88q0-3.584 2.56-6.144t 5.632-2.56l 79.36,0 l0-86.528 q0-4.096 2.304-6.4t 5.888-2.304l 41.984,0 q 3.072,0 5.632,2.304
t 2.56,6.4l0,86.528 l 78.848,0 q 3.584,0 5.888,2.56t 2.304,6.144l0,39.936 q0,3.072 -2.304,5.632t-5.888,2.56l-78.848,0 l0,87.040 q0,4.096 -2.56,6.4t-5.632,2.304l-41.984,0 q-3.584,0 -5.888-2.304t-2.304-6.4l0-87.040 l-79.36,0 q-3.072,0 -5.632-2.56t-2.56-5.632l0-39.936 z" horiz-adv-x="403" data-tags="plus-circle" />
<glyph unicode="&#xe024;" d="M 384.512,110.336q 48.128-17.408 76.288-34.304t 28.16-28.672l0-53.76 l-481.28,0 l0,53.76 q0,11.776 28.16,28.672t 76.288,34.304q 47.616,17.408 65.536,35.328t 17.92,48.64q0,10.24 -5.12,16.128t-12.288,16.128t-10.752,29.696q-1.024,6.144 -4.608,8.96t-7.424,4.096t-7.168,8.704t-4.352,22.272q0,7.68 2.304,13.056t 4.352,6.912l 2.56,1.536q-4.608,25.6 -6.656,45.056q-1.024,10.752 3.072,24.32t 14.080,28.416t 32,24.832t 52.736,9.984t 52.736-9.984
t 32-24.832t 14.080-28.416t 3.072-24.32l-6.656-45.056q 9.216-4.096 9.216-21.504q-1.024-14.848 -4.352-22.272t-7.168-8.704t-7.424-4.096t-4.608-8.96q-3.584-19.456 -10.752-29.696t-12.288-16.128t-5.12-16.128q0-30.72 17.92-48.64t 65.536-35.328z" horiz-adv-x="496" data-tags="user" />
<glyph unicode="&#xe025;" d="M 115.712,201.472l0,46.080 l 143.36,0 l0-46.080 l-143.36,0 zM 314.88,454.4q 20.992,0 36.096-15.104t 15.104-36.096l0-358.4 q0-20.992 -15.104-36.096t-36.096-15.104l-256,0 q-20.992,0 -36.096,15.104t-15.104,36.096l0,358.4 q0,20.992 15.104,36.096t 36.096,15.104l 256,0 zM 314.88,44.8l0,358.4 l-256,0 l0-358.4 l 256,0 zM 258.56,347.392l0-44.544 l-143.36,0 l0,44.544 l 143.36,0 zM 258.56,146.688l0-45.056 l-143.36,0 l0,45.056 l 143.36,0 z" horiz-adv-x="373" data-tags="doc-text" />
<glyph unicode="&#xe026;" d="M0,66.816l0,295.936 q0,12.288 8.96,21.248t 21.248,8.96l 19.456,0 l0-37.376 q0-14.848 10.496-25.344t 25.344-10.496l 8.192,0 q 15.36,0 26.112,10.496t 10.752,25.344l0,37.376 l 31.232,0 l0-37.376 q0-14.848 10.496-25.344t 25.344-10.496l 8.704,0 q 15.36,0 25.856,10.496t 10.496,25.344l0,37.376 l 31.232,0 l0-37.376 q0-14.848 10.752-25.344t 25.6-10.496l 8.192,0 q 15.36,0 25.856,10.496t 10.496,25.344l0,37.376 l 19.456,0 q 12.288,0 20.992-8.96t 8.704-21.248
l0-295.936 q0-12.288 -8.704-21.248t-20.992-8.96l-344.064,0 q-12.288,0 -21.248,8.96t-8.96,21.248zM 40.448,77.056l 323.584,0 l0,214.528 l-323.584,0 l0-214.528 zM 69.632,355.584l0,69.12 q0,6.656 4.864,11.52t 11.008,4.864l 8.192,0 q 7.168,0 11.776-4.864t 4.608-11.52l0-69.12 q0-6.144 -4.608-10.752t-11.776-4.608l-8.192,0 q-6.144,0 -11.008,4.608t-4.864,10.752zM 95.232,122.112q0,18.944 10.752,31.232t 23.552,21.504l 23.552,16.896q 10.752,8.192 10.752,19.456
q0,10.752 -6.144,15.616t-15.36,4.864q-6.144,0 -11.264-2.304t-8.704-6.4q-2.048-2.048 -3.84-4.096t-3.328-4.608l-18.432,12.288q 4.096,7.168 11.264,14.336q 5.632,6.144 14.592,10.496t 21.76,4.352q 18.944,0 33.024-11.264t 14.080-31.744q0-11.264 -4.864-19.456t-12.544-15.104t-16.384-12.544l-15.872-10.24q-7.68-5.632 -12.8-11.52t-5.12-13.568l 49.664,0 l0,18.432 l 22.528,0 l0-39.424 l-99.84,0 q-0.512,3.584 -0.768,6.656t-0.256,6.144z
M 182.272,355.584l0,69.12 q0,6.656 4.608,11.52t 10.752,4.864l 8.704,0 q 6.656,0 11.52-4.864t 4.864-11.52l0-69.12 q0-6.144 -4.864-10.752t-11.52-4.608l-8.704,0 q-6.144,0 -10.752,4.608t-4.608,10.752zM 214.016,214.784l0,37.888 l 100.864,0 l0-17.92 l-62.976-125.44l-27.648,0 l 57.856,114.176q 1.536,4.608 3.072,6.144l 1.536,2.048l0,0.512 q-1.536,0 -2.56-0.512l-7.168,0 l-40.448,0 l0-16.896 l-22.528,0 zM 294.4,355.584l0,69.12 q0,6.656 4.608,11.52t 11.264,4.864l 8.192,0 q 6.656,0 11.52-4.864t 4.864-11.52
l0-69.12 q0-6.144 -4.864-10.752t-11.52-4.608l-8.192,0 q-6.656,0 -11.264,4.608t-4.608,10.752z" horiz-adv-x="403" data-tags="calendar" />
<glyph unicode="&#xe027;" d="M 131.072,37.632l0,157.184 l 104.96,0 l0-157.184 l-104.96,0 zM 262.144,40.192l0,364.544 l 104.96,0 l0-364.544 l-104.96,0 zM 393.216,40.192l0,259.584 l 104.96,0 l0-259.584 l-104.96,0 z" horiz-adv-x="628" data-tags="chart-bar" />
<glyph unicode="&#xe028;" d="M 401.92,315.648l-138.24-130.048l-138.24,130.048l 76.8,0 l0,125.952 l 122.88,0 l0-125.952 l 76.8,0 zM 502.784,146.176q 9.216-5.12 13.824-16.128t 2.048-21.248l-14.336-78.336q-2.048-9.728 -11.52-16.896t-20.224-7.168l-417.792,0 q-10.752,0 -20.224,7.168t-11.52,16.896l-14.336,78.336q-2.56,10.24 2.048,21.248t 13.824,16.128l 81.408,54.784l 50.176,0 l-87.040-67.072l 91.136,0 q 4.608,0 6.144-3.072l 20.48-57.344l 153.6,0 l 20.48,57.344q 1.536,3.072 6.144,3.072l 91.136,0 l-87.040,67.072
l 50.176,0 z" horiz-adv-x="527" data-tags="download" />
<glyph unicode="&#xe029;" d="M 402.944,84.224q 17.408-17.408 3.584-31.232l-24.064-24.064q-7.168-7.168 -17.152-7.168t-17.152,7.168l-97.28,97.28q-36.864-21.504 -79.872-21.504q-65.536,0 -114.432,48.896t-48.896,114.432t 46.336,111.872t 111.872,46.336t 114.432-48.896t 48.896-114.432q0-43.008 -23.040-81.92zM 56.32,268.032q0-45.056 34.816-79.872t 79.872-34.816t 77.312,32.256t 32.256,77.312t-34.816,79.872t-79.872,34.816t-77.312-32.256
t-32.256-77.312z" horiz-adv-x="419" data-tags="search" />
<glyph unicode="&#xe02a;" d="M 157.184,63.744l0,183.296 q0,15.872 8.192,18.432l 15.36,8.192l 7.68,0 l 5.632,0 l 5.12,0 l 10.752,0 q0,31.232 2.56,44.544q0,10.24 5.12,41.984q 7.68,20.48 18.432,36.864q 23.552,33.792 78.592,33.792t 78.592-33.792q 10.24-15.872 18.432-36.864q 5.12-31.744 5.12-41.984q 3.072-13.312 2.56-44.544l 8.192,0 l 7.68,0 l 5.12,0 l 7.68,0 l 15.872-8.192q 8.192-2.56 8.192-18.432l0-183.296 q0-26.112 -26.112-26.112l-262.656,0 q-26.112,0 -26.112,26.112zM 262.144,273.664l 104.96,0 l0,52.224 q0,20.992 -15.872,36.864t-36.608,15.872
t-36.608-15.872t-15.872-36.864l0-52.224 z" horiz-adv-x="628" data-tags="lock" />
<glyph unicode="&#xe02b;" d="M 78.848,63.744l0,236.032 q0,20.992 15.616,36.864t 36.608,15.872l 236.032,0 q 20.992,0 36.608-15.872t 15.616-36.864l0-236.032 q0-20.992 -15.616-36.608t-36.608-15.616l-236.032,0 q-20.992,0 -36.608,15.616t-15.616,36.608zM 131.072,63.744l 236.032,0 l0,236.032 l-236.032,0 l0-236.032 zM 157.184,378.624l0,26.112 q0,20.48 15.616,36.352t 37.12,15.872l 262.144,0 q 20.48,0 36.352-15.616t 15.872-36.608l0-262.144 q0-36.864 -26.112-44.544q-24.064-8.192 -52.224-8.192
l0,52.736 l 26.112,0 l0,262.144 l-262.144,0 l0-26.112 l-52.736,0 z" horiz-adv-x="628" data-tags="popup" />
<glyph unicode="&#xe02c;" d="M0,219.904l0,37.888 q0,10.24 7.168,17.408t 17.408,7.168l 133.632,0 l0,133.12 q0,10.752 7.168,18.176t 17.92,7.424l 37.888,0 q 10.24,0 17.408-7.424t 7.168-17.664l0-133.632 l 133.632,0 q 10.24,0 17.408-7.168t 7.168-17.408l0-37.888 q0-10.24 -7.168-17.408t-17.408-7.168l-133.632,0 l0-133.12 q0-10.752 -7.168-18.176t-17.408-7.424l-37.888,0 q-10.24,0 -17.664,7.424t-7.424,17.664l0,133.632 l-133.12,0 q-10.752,0 -17.92,6.912t-7.168,17.664z" horiz-adv-x="403" data-tags="plus" />
<glyph unicode="&#xe02d;" d="M 220.285,360.024 L 494,360.024 L 494,34.131 L 18,34.131 L 18,413.869 L 143.181,413.869 L 180.948,376.267 C 191.397,365.864 205.541,360.024 220.285,360.024 Z" data-tags="folder" />
<glyph unicode="&#xe02e;" d="M 460.013,31.821L 45.728,31.821 L 18,248.807l 476,0 L 460.013,31.821z M 457.029,289.199l0,89.311 L 223.675,378.511 

	c-10.258,0-20.098,4.059-27.373,11.289L 169.754,416.179L 53.816,416.179 l0-126.98 L 457.029,289.199 z" data-tags="folder-open" />
<glyph unicode="&#xe02f;" d="M 426.655,480L 85.345,480 C 38.405,480,0,441.608,0,394.671l0-341.328 C0,6.405, 38.405-32, 85.345-32l 341.311,0 
	C 473.625-32, 512,6.405, 512,53.343L 512,394.671 C 512,441.608, 473.625,480, 426.655,480z M 128,352l 256,0 c 4.569,0, 9.002-0.981, 13.072-2.831
	L 256,184.585L 114.928,349.17C 118.998,351.018, 123.431,352, 128,352z M 96,128L 96,320 c0,0.67, 0.028,1.336, 0.070,2l 93.832-109.47
	L 97.103,119.73C 96.381,122.399, 96,125.173, 96,128z M 384,96L 128,96 c-2.827,0-5.601,0.381-8.27,1.103l 91.059,91.059L 256,135.414
	l 45.212,52.747l 91.058-91.059C 389.6,96.381, 386.827,96, 384,96z M 416,128c0-2.827-0.381-5.6-1.103-8.27l-92.799,92.799L 415.93,322
	c 0.042-0.664, 0.070-1.33, 0.070-2L 416,128 z" data-tags="mail" />
<glyph unicode="&#xe030;" d="M 426.671,480L 85.343,480 C 38.406,480,0,441.595,0,394.655l0-341.311 C0,6.375, 38.406-32, 85.343-32l 341.328,0 
	C 473.609-32, 512,6.375, 512,53.345L 512,394.655 C 512,441.595, 473.609,480, 426.671,480z M 419.026,309.083
	c 0.164-3.671, 0.245-7.364, 0.245-11.074c0-113.107-84.608-243.534-239.329-243.534c-47.502,0-91.717,14.174-128.943,38.459
	c 6.58-0.794, 13.276-1.197, 20.065-1.197c 39.411,0, 75.679,13.685, 104.467,36.641c-36.808,0.69-67.872,25.438-78.577,59.441
	c 5.137-1, 10.406-1.537, 15.826-1.537c 7.672,0, 15.103,1.048, 22.16,3.004c-38.48,7.866-67.475,42.458-67.475,83.928
	c0,0.361,0,0.719, 0.008,1.076c 11.34-6.41, 24.312-10.26, 38.1-10.705c-22.571,15.349-37.421,41.546-37.421,71.244
	c0,15.685, 4.147,30.389, 11.389,43.029c 41.487-51.785, 103.468-85.86, 173.377-89.431c-1.435,6.266-2.179,12.798-2.179,19.507
	c0,47.269, 37.663,85.59, 84.115,85.59c 24.195,0, 46.059-10.393, 61.401-27.029c 19.16,3.838, 37.162,10.96, 53.416,20.771
	c-6.281-19.988-19.617-36.761-36.983-47.355c 17.013,2.069, 33.226,6.67, 48.31,13.477C 449.725,336.226, 435.463,321.15, 419.026,309.083
	z" data-tags="twitter" />
<glyph unicode="&#xe031;" d="M 426.672,480L 85.342,480 C 38.406,480,0,441.593,0,394.656l0-341.313 C0,6.374, 38.406-32, 85.342-32l 341.33,0.001
	c 46.938,0, 85.328,38.373, 85.328,85.344L 512,394.656 C 512,441.593, 473.609,480, 426.672,480z M 435.296,224L 352,224 l0-224 l-96,0 L 256,224 l-46.263,0 l0,73.282 L 256,297.282 
	l0,47.593 C 256,409.546, 283.896,448, 359.935,448l 87.622,0 l0-79.285 l-71.565,0 c-21.241,0.035-23.876-11.076-23.876-31.756L 352,297.282l 96,0 
	L 435.296,224z" data-tags="facebook" />
<glyph unicode="&#xe032;" d="M 432-32L 80-32 c-8.848,0-16,7.152-16,16L 64,320 l 16,0 l0,0l 128,0 c 8.848,0, 16,7.168, 16,16L 224,416 L 224,464 L 224,480 l 208,0 
	c 8.848,0, 16-7.168, 16-16l0-480 C 448-24.848, 440.848-32, 432-32z M 192,480l0-64 l0-64 L 64,352 L 192,480z" data-tags="file" />
<glyph unicode="&#xe033;" d="M0,480,m 84.828-511.294l 340.865,0l0,383.46l-340.865,0l0-383.46zm 241.458,312.445l 28.378,0l0-255.633l-28.378,0l0,255.633zm-85.218,0l 28.378,0l0-255.633l-28.378,0l0,255.633zm-85.232,0l 28.42,0l0-255.633l-28.42,0l0,255.633zM 0,480 Z M 383.084,394.789 L 127.415,394.789 L 42.24,394.789 C 42.24,418.307 61.282,437.398 84.828,437.398 L 184.256,437.398 L 184.256,480 L 326.286,480 L 326.286,437.398 L 425.686,437.398 C 449.232,437.398 468.316,418.314 468.316,394.789 L 383.084,394.789 Z" data-tags="trashcan" />
<glyph unicode="&#xe034;" d="M0,480,m 256-76zm-63.001-223.999l 63.001-128.001l 63.001,128.001l-126.002,0zM 0,480 Z M 319.001,235.999 L 192.999,235.999 L 256,364 L 319.001,235.999 Z" data-tags="d-arrow" />
<glyph unicode="&#xe035;" d="M 480,416L 32,416 C 14.4,416,0,401.6,0,384l0-224 c0-17.6, 14.4-32, 32-32l 64,0 l0-96 l 72,96l 312,0 c 17.6,0, 32,14.4, 32,32L 512,384 
	C 512,401.6, 497.6,416, 480,416z M 160,224L 96,224 l0,64 l 64,0 L 160,224 z M 288,224l-64,0 l0,64 l 64,0 L 288,224 z M 416,224l-64,0 l0,64 l 64,0 L 416,224 z" data-tags="bubble" />
<glyph unicode="&#xe036;" d="M 256.026-11.52c 130.074,0, 235.494,105.446, 235.494,235.52s-105.421,235.52-235.494,235.52C 125.926,459.52, 20.48,354.074, 20.48,224S 125.926-11.52, 256.026-11.52z
		 M 256.026,408.32c 101.811,0, 184.294-82.534, 184.294-184.32s-82.509-184.32-184.294-184.32C 154.189,39.68, 71.68,122.189, 71.68,224S 154.189,408.32, 256.026,408.32z M 209.92,125.44
		l 92.186,0 L 302.106,230.144 l 57.6,0 l-103.68,97.536L 152.32,230.144L 209.92,230.144 L 209.92,125.44 z" data-tags="upload" />
<glyph unicode="&#xe037;" d="M 420.885,279.787l-34.176,59.115l-77.12-22.059L 290.133,394.667L 221.867,394.667 L 202.411,316.843L 125.269,338.901l-34.133-59.115l 57.664-55.744l-57.685-55.765
		l 34.155-59.157l 77.141,22.080L 221.867,53.333L 290.133,53.333 l 19.456,77.845l 77.163-22.059l 34.133,59.115l-57.707,55.787L 420.885,279.787z M 256,178.496
		c-25.131,0-45.525,20.373-45.525,45.504S 230.869,269.504, 256,269.504c 25.152,0, 45.483-20.373, 45.483-45.504S 281.173,178.496, 256,178.496z" data-tags="cog" />
<glyph unicode="&#xe038;" d="M 371.2,377.6l-230.4,0 C 115.354,377.6, 102.4,369.766, 102.4,344.32l0-240.64 C 102.4,78.234, 115.354,70.4, 140.8,70.4l 230.4,0 c 25.446,0, 38.4,7.834, 38.4,33.28L 409.6,344.32 C 409.6,369.766, 396.646,377.6, 371.2,377.6
		z" data-tags="square" />
<glyph unicode="&#xe039;" d="M 53.968,112.464L 144.464,21.968L 302.864,180.336L 416,67.216L 416,384L 99.216,384L 212.352,270.864 z" data-tags="arrow-up-right" />
<glyph unicode="&#xe03a;" d="M 367.536,21.968L 458.032,112.464L 299.664,270.864L 412.784,384L 96,384L 96,67.216L 209.136,180.352 z" data-tags="arrow-up-left" />
<glyph unicode="&#xe03b;" d="M 458.032,335.536L 367.536,426.032L 209.136,267.664L 96,380.784L 96,64L 412.784,64L 299.648,177.136 z" data-tags="arrow-down-left" />
<glyph unicode="&#xe03c;" d="M 144.464,426.032L 53.968,335.536L 212.336,177.136L 99.216,64L 416,64L 416,380.784L 302.864,267.648 z" data-tags="arrow-down-right" />
<glyph unicode="&#xe03d;" d="M 320,448L 320,224L 480,224L 256,0L 32,224L 192,224L 192,448 z" data-tags="arrow-down" />
<glyph unicode="&#xe03e;" d="M 192,0L 192,224L 32,224L 256,448L 480,224L 320,224L 320,0 z" data-tags="arrow-up" />
<glyph unicode="&#xe03f;" d="M 480,160L 256,160L 256,0L 32,224L 256,448L 256,288L 480,288 z" data-tags="arrow-left" />
<glyph unicode="&#xe040;" d="M 32,288L 256,288L 256,448L 480,224L 256,0L 256,160L 32,160 z" data-tags="arrow-right" />
<glyph unicode="&#xe041;" d="M 0.256,287.232q 2.304,6.912 13.568,8.96l 128.512,18.432l 56.832,116.224q 5.632,10.752 12.8,10.752t 12.288-10.752l 57.856-116.224l 127.488-18.432q 11.776-2.048 14.080-8.96t-5.888-15.104l-92.672-90.624l 21.504-126.976q 2.048-11.776 -3.84-16.128t-16.128,1.792l-114.688,59.392l-114.176-59.392q-11.264-6.144 -17.152-1.792t-3.328,16.128l 22.016,126.976l-92.672,90.624q-8.704,8.192 -6.4,15.104z" horiz-adv-x="423" data-tags="star" />
<glyph unicode="&#xe042;" d="M 0.256,287.232 m0,0,q 2.304,6.912 13.568,8.96l 128.512,17.92l 56.832,116.736q 5.12,10.24 12.544,10.24t 12.544-10.24l 57.856-116.736l 127.488-17.92q 11.776-2.048 14.080-8.96t-5.888-15.104l-92.672-90.624l 21.504-126.976q 1.536-8.704 -1.28-13.312t-8.448-4.608q-3.584,0 -10.24,2.56l-114.688,60.416l-114.176-60.416q-6.656-2.56 -10.24-2.56q-6.144,0 -8.96,4.608t-1.28,13.312l 22.016,126.976l-92.672,90.624q-8.704,8.192 -6.4,15.104zm 168.704-208.64l 42.496,67.072l 19.456-9.728l 66.56-35.84l-12.288,75.264l-4.096,20.992l 15.36,14.336l 54.272,52.736l-74.752,10.752l-20.992,3.584l-9.728,18.944l-33.28,67.584l0-67.072l-0.512-86.784l0-64.768zM 114.944,273.664 m0,0,M 129.28,274.688 m0,0," horiz-adv-x="423" data-tags="star-half" />
<glyph unicode="&#xe043;" d="M 437.011,405.010C 390.685,451.338, 326.693,480, 256,480C 146.256,480, 52.655,410.936, 16.251,313.906l 59.938-22.477
		C 103.491,364.202, 173.692,416, 256,416c 53.020,0, 101.010-21.5, 135.753-56.247L 320,288l 192,0 L 512,480 L 437.011,405.010zM 256,32c-53.020,0-101.013,21.496-135.756,56.244L 192,160L0,160 l0-192 l 74.997,74.997C 121.32-3.334, 185.306-32, 256-32
		c 109.745,0, 203.346,69.064, 239.75,166.094l-59.938,22.477C 408.51,83.798, 338.309,32, 256,32z" data-tags="refresh" />
<glyph unicode="&#xe044;" d="M0,480 L0,329.412 L 150.588,329.412 L 150.588,480 L0,480 Z M0,480M 361.412,299.294 L 361.412,148.706 L 512,148.706 L 512,299.294 L 361.412,299.294 Z M 361.412,299.294M 180.706,299.294 L 180.706,148.706 L 331.294,148.706 L 331.294,299.294 L 180.706,299.294 Z M 180.706,299.294M 180.706,118.588 L 180.706-32 L 331.294-32 L 331.294,118.588 L 180.706,118.588 Z M 180.706,118.588M 361.412,118.588 L 361.412-32 L 512-32 L 512,118.588 L 361.412,118.588 Z M 361.412,118.588" data-tags="basket" />
<glyph unicode="&#xe045;" d="M 448,384 L 64,384 L 64,64 L 448,64 L 448,384 Z M 512,448 L 512,448 L 512,0 L 0,0 L 0,448 L 512,448 ZM 416,96 L 96,96 L 96,160 L 192,320 L 323.5,160 L 416,224 L 416,192 ZM 320,304A48,48 5220 1 1 416,304A48,48 5220 1 1 320,304z" data-tags="image" />
<glyph unicode="&#xe046;" d="M 253.714,141.714l 33.143,33.143l-43.429,43.429l-33.143-33.143l0-16 l 27.429,0 l0-27.429 l 16,0 zM 379.429,347.429q-4.571,4.571 -9.429-0.286l-100-100q-4.857-4.857 -0.286-9.429t 9.429,0.286l 100,100q 4.857,4.857 0.286,9.429zM 402.286,177.714l0-54.286 q0-34 -24.143-58.143t-58.143-24.143l-237.714,0 q-34,0 -58.143,24.143t-24.143,58.143l0,237.714 q0,34 24.143,58.143t 58.143,24.143l 237.714,0  q 18,0 33.429-7.143q 4.286-2 5.143-6.571q 0.857-4.857 -2.571-8.286l-14-14q-4-4 -9.143-2.286q-6.571,1.714 -12.857,1.714l-237.714,0 q-18.857,0 -32.286-13.429t-13.429-32.286l0-237.714 q0-18.857 13.429-32.286t 32.286-13.429l 237.714,0 q 18.857,0 32.286,13.429t 13.429,32.286l0,36 q0,3.714 2.571,6.286l 18.286,18.286q 4.286,4.286 10,2t 5.714-8.286zM 374.857,388.571l 82.286-82.286l-192-192l-82.286,0 l0,82.286 zM 501.714,350.857l-26.286-26.286 l-82.286,82.286l 26.286,26.286q 8,8 19.429,8t 19.429-8l 43.429-43.429q 8-8 8-19.429t-8-19.429z" data-tags="edit, write, blog" />
<glyph unicode="&#xe047;" d="M 426.667,416L 426.667,458.667L 298.667,458.667L 298.667,416L 341.333,416L 341.333,32L 298.667,32L 298.667-10.667L 426.667-10.667L 426.667,32L 384,32L 384,416 zM 298.667,366.037c0,2.219-4.16,4.885-6.827,6.784c-11.755,8.768-24.747,14.485-39.168,17.131c-14.421,2.667-31.253,3.989-50.624,3.989 c-14.037,0-28.459-2.219-43.2-6.741C 144.085,382.699, 131.541,377.237, 121.173,370.752C 109.163,363.157, 99.435,354.496, 91.947,344.832 C 84.459,335.147, 80.704,324.992, 80.704,314.389c0-10.155, 2.709-19.307, 8.128-27.499s 13.888-12.267, 25.408-12.267c 12.907,0, 22.997,3.328, 30.272,10.048 c 7.275,6.656, 10.901,14.037, 10.901,22.123c0,7.595-1.109,15.893-3.285,24.896c-2.219,8.981-3.285,15.787-3.285,20.395 c 3.691,3.925, 10.091,7.659, 19.2,11.243c 9.088,3.584, 18.965,5.355, 29.568,5.355c 15.445,0, 27.371-3.157, 35.797-9.493 c 8.427-6.357, 14.933-13.781, 19.541-22.315C 257.088,329.259, 256,312, 256,312l0-50.88 c0-5.995-28.949-14.293-60.672-24.896 s-51.008-17.856-61.397-21.781C 125.653,211.2, 117.675,206.869, 108.203,201.472c-9.451-5.44-16.64-11.584-22.421-18.517 c-7.381-8.299-12.693-17.621-16.384-27.989S 64,132.843, 64,119.68c0-25.365, 8.299-45.888, 24.789-61.568c 16.469-15.659, 37.547-23.531, 63.125-23.531 c 24.213,0, 44.907,9.493, 62.080,18.24C 231.211,61.632, 247.296,74.667, 262.272,96l 2.091,0 c 3.008-21.333, 9.685-33.515, 20.395-41.941L 298.667,53.333L 298.667,366.037 z M 261.589,112.491c-8.533-10.859-19.029-20.245-31.467-28.245c-12.459-7.957-26.88-11.968-43.243-11.968c-15.467,0-28.181,4.501-38.208,13.547 c-10.048,9.003-15.040,23.083-15.040,42.24c0,14.784, 3.328,27.584, 10.048,38.315c 6.656,10.773, 15.787,20.053, 27.285,27.904 c 12.715,8.341, 26.411,15.253, 41.173,20.821c 14.741,5.547, 29.824,10.624, 49.451,16.363L 261.589,112.491 z" data-tags="translate" />
<glyph unicode="&#xe048;" d="M 385.758,320c 9.063,6.44, 17.756,13.608, 25.722,21.574c 16.701,16.701, 27.873,37.25, 31.456,57.861 c 3.929,22.593-1.836,43.57-15.815,57.55c-11.15,11.149-26.255,17.043-43.682,17.043c-24.816,0-50.961-11.912-71.73-32.681 c-33.238-33.238-52.613-79.119-63.038-111.861c-7.72,32.901-23.103,77.322-53.009,107.229C 179.615,452.761, 159.105,461, 139.739,461 c-15.827,0-30.89-5.502-42.13-16.743c-24.993-24.994-21.616-68.893, 7.543-98.052c 10.396-10.396, 22.549-19.031, 35.36-26.206L 32,319.999 l0-128 l 32,0 l0-224 l 384,0 L 448,192 l 32,0 L 480,320 L 385.758,320 z M 337.163,415.891c 13.862,13.862, 31.161,22.137, 46.275,22.137c 5.35,0, 12.854-1.127, 18.225-6.499 c 13.015-13.014, 5.706-43.154-15.64-64.499c-21.973-21.973-51.53-37.084-77.216-47.030l-25.336,0 C 292.755,348.774, 309.5,388.228, 337.163,415.891z M 116.967,399.555c-0.351,4.56-0.025,13.124, 6.098,19.247 C 128.187,423.924, 134.959,425, 139.739,425l0,0 c 10.629,0, 21.734-5.008, 30.466-13.74c 16.936-16.936, 30.883-43.886, 40.334-77.938 c 0.255-0.92, 0.504-1.835, 0.748-2.743c-0.908,0.243-1.823,0.492-2.743,0.748c-34.052,9.452-61.001,23.399-77.937,40.335 C 122.693,379.575, 117.722,389.742, 116.967,399.555z M 224,0L 96,0 L 96,208 l 128,0 L 224,0 z M 224,224L 64,224 l0,64 l 160,0 L 224,224 z M 416,0L 288,0 L 288,208 l 128,0 L 416,0 z M 448,224L 288,224 l0,64 l 160,0 L 448,224 z" data-tags="gift" />
<glyph unicode="&#xe049;" d="M 365.285,224q0,39.714 -20.286,74.286l-200.286-200.286q 34.571-20.286 74.286-20.286q 29.714,0 56.714,11.571t 46.714,31.286t 31.286,46.714t 11.571,56.714zM 93,149.714l 200.286,200.286q-34.571,20.286 -74.286,20.286q-29.714,0 -56.714-11.571t-46.714-31.286t-31.286-46.714t-11.571-56.714q0-39.714 20.286-74.286zM 438.428,224q0-59.714 -29.429-110.143 t-79.857-79.857t-110.143-29.429t-110.143,29.429t-79.857,79.857t-29.429,110.143t 29.429,110.143t 79.857,79.857t 110.143,29.429t 110.143-29.429t 79.857-79.857t 29.429-110.143z" horiz-adv-x="438" data-tags="ban-circle, block, forbidden" />
<glyph unicode="&#xe04a;" d="M 147.187,156.373  m0,0,c 0,0 160.606,245.009 332.109,304.896 0,0 -62.605-190.558 -274.944-359.334 L 147.187,156.373 zM 141.687,144.030 194.594,92.954 167.095,59.819 c 0,0 -22.033,29.154 -47.962,45.184 -13.5,8.363 22.554,39.027 22.554,39.027 zM 60.079,52.582  m0,0,c 0,0 42.189,74.18 86.707,13.589 0,0 13.269-100.489 -142.101-88.845 0,0.004 55.966,51.294 55.394,75.255 zM 592.808,89.45  m0,0,c 5.357,0 10.342,4.344 11.070,9.653 0,0 1.024,7.461 1.024,16.333 0,8.872 -1.024,16.333 -1.024,16.333 -0.732,5.311 -5.713,9.653 -11.070,9.653 l -27.685,0  c -5.36,0 -10.927,3.418 -12.367,7.593 -1.441,4.175 -3.423,17.57 0.368,21.358 l 19.57,19.57 c 3.788,3.791 4.080,10.258 0.648,14.376 l -23.025,23.030 c -4.118,3.435 -10.583,3.142 -14.376-0.649 l -19.57-19.57 c -3.788-3.791 -10.103-5.317 -14.026-3.395 -3.925,1.923 -14.924,10.032 -14.924,15.392 l 0,27.685  c 0,5.36 -4.344,10.342 -9.653,11.073 0,0 -7.461,1.027 -16.333,1.027 -8.872,0 -16.333-1.027 -16.333-1.027 -5.311-0.729 -9.656-5.713 -9.656-11.073 l 0-27.685  c 0-5.36 -3.415-10.924 -7.593-12.367 -4.178-1.44 -17.57-3.423 -21.36,0.367 L 386.924,226.696 C 383.134,230.487 376.666,230.78 372.551,227.348 l -23.028-23.028 c -3.435-4.118 -3.142-10.585 0.648-14.376 l 19.567-19.57 c 3.791-3.791 5.32-10.103 3.395-14.026 -1.925-3.923 -10.032-14.924 -15.392-14.924 l -27.682,0  c -5.36,0 -10.342-4.344 -11.073-9.653 0,0 -1.027-7.461 -1.027-16.333 0-8.875 1.027-16.333 1.027-16.333 0.729-5.311 5.713-9.653 11.073-9.653 l 27.685,0  c 5.36,0 10.924-3.415 12.365-7.593 1.44-4.175 3.423-17.567 -0.367-21.357 l -19.567-19.567 c -3.791-3.791 -4.083-10.258 -0.648-14.376 l 23.025-23.030 c 4.118-3.432 10.583-3.142 14.373,0.648 l 19.57,19.57 c 3.791,3.788 10.103,5.317 14.029,3.395 3.926-1.923 14.924-10.032 14.924-15.392 l 0-27.685  c 0-5.357 4.344-10.342 9.656-11.070 0,0 7.458-1.024 16.333-1.024 8.875,0 16.333,1.024 16.333,1.024 5.311,0.732 9.653,5.713 9.653,11.070 l 0,27.685  c 0,5.36 3.415,10.927 7.593,12.367 4.178,1.441 17.57,3.42 21.36-0.368 l 19.567-19.57 c 3.791-3.788 10.258-4.080 14.376-0.648 l 23.025,23.022 c 3.432,4.118 3.142,10.583 -0.651,14.376 l -19.567,19.567 c -3.791,3.791 -5.32,10.103 -3.395,14.029 1.923,3.926 10.032,14.924 15.392,14.924 l 27.688,0  z m -131.376-26.528 c -29.005,0 -52.517,23.51 -52.517,52.517 0,29.002 23.512,52.517 52.517,52.517 29.005,0 52.517-23.512 52.517-52.517 0-29.005 -23.512-52.517 -52.517-52.517 z" horiz-adv-x="618.667" data-tags="wrench" />
<glyph unicode="&#x20;" horiz-adv-x="256" />
</font>
</defs>
</svg>
