<?xml version="1.0" standalone="no"?>
<!DOCTYPE svg PUBLIC "-//W3C//DTD SVG 1.1//EN" "http://www.w3.org/Graphics/SVG/1.1/DTD/svg11.dtd" >
<svg xmlns="http://www.w3.org/2000/svg">
<metadata>Generated by IcoMoon</metadata>
<defs>
<font id="glyphs" horiz-adv-x="512">
<font-face units-per-em="512" ascent="480" descent="-32" />
<missing-glyph horiz-adv-x="512" />
<glyph unicode="&#x20;" d="" horiz-adv-x="256" />
<glyph unicode="&#xe000;" d="M7.68 121.6l117.76 204.8 117.76-204.8h-235.52z" horiz-adv-x="250" />
<glyph unicode="&#xe001;" d="M7.68 341.76l204.8-117.76-204.8-117.76v235.52z" horiz-adv-x="220" />
<glyph unicode="&#xe002;" d="M243.2 326.4l-117.76-204.8-117.76 204.8h235.52z" horiz-adv-x="250" />
<glyph unicode="&#xe003;" d="M212.48 341.76v-235.52l-204.8 117.76z" horiz-adv-x="220" />
<glyph unicode="&#xe004;" d="M0.256 287.232q2.304 6.912 13.568 8.96l128.512 17.92 56.832 116.736q5.12 10.24 12.544 10.24t12.544-10.24l57.856-116.736 127.488-17.92q11.776-2.048 14.080-8.96t-5.888-15.104l-92.672-90.624 21.504-126.976q1.536-8.704-1.28-13.312t-8.448-4.608q-3.584 0-10.24 2.56l-114.688 60.416-114.176-60.416q-6.656-2.56-10.24-2.56-6.144 0-8.96 4.608t-1.28 13.312l22.016 126.976-92.672 90.624q-8.704 8.192-6.4 15.104zM73.216 263.424l53.76-52.736 15.872-14.336-3.584-20.992-13.312-75.264 67.072 35.84 18.944 9.728 18.944-9.728 66.56-35.84-12.288 75.264-4.096 20.992 15.36 14.336 54.272 52.736-74.752 10.752-20.992 3.584-9.728 18.944-33.28 67.584-33.792-67.584-8.704-18.944-21.504-3.584z" horiz-adv-x="423" />
<glyph unicode="&#xe005;" d="M0 57.088v71.168q0 8.704 5.888 14.336t14.592 5.632h78.336q7.68 0 13.824-5.632t6.144-14.336v-71.168q0-8.704-6.144-14.592t-13.824-5.888h-78.336q-8.704 0-14.592 5.888t-5.888 14.592zM0 209.152v59.392q0 8.704 5.888 14.336t14.592 5.632h78.336q7.68 0 13.824-5.632t6.144-14.336v-59.392q0-8.704-6.144-14.592t-13.824-5.888h-78.336q-8.704 0-14.592 5.888t-5.888 14.592zM0 349.44v71.68q0 8.192 5.888 14.080t14.592 5.888h78.336q7.68 0 13.824-5.888t6.144-14.080v-71.68q0-8.704-6.144-14.592t-13.824-5.888h-78.336q-8.704 0-14.592 5.888t-5.888 14.592zM159.232 57.088v71.168q0 8.704 5.888 14.336t14.592 5.632h285.184q8.192 0 14.080-5.632t5.888-14.336v-71.168q0-8.704-5.888-14.592t-14.080-5.888h-285.184q-8.704 0-14.592 5.888t-5.888 14.592zM159.232 209.152v59.392q0 8.704 5.888 14.336t14.592 5.632h285.184q8.192 0 14.080-5.632t5.888-14.336v-59.392q0-8.704-5.888-14.592t-14.080-5.888h-285.184q-8.704 0-14.592 5.888t-5.888 14.592zM159.232 349.44v71.68q0 8.192 5.888 14.080t14.592 5.888h285.184q8.192 0 14.080-5.888t5.888-14.080v-71.68q0-8.704-5.888-14.592t-14.080-5.888h-285.184q-8.704 0-14.592 5.888t-5.888 14.592z" horiz-adv-x="484" />
<glyph unicode="&#xe006;" d="M411.648 372.992q35.84-33.28 35.84-79.872t-35.84-79.872l-183.808-168.96-183.808 168.96q-35.84 33.28-35.84 79.872t35.84 79.872q32.256 29.696 77.312 29.696t77.312-29.696l29.184-26.624 29.184 26.624q32.256 29.696 77.312 29.696t77.312-29.696z" horiz-adv-x="455" />
<glyph unicode="&#xe007;" d="M0.512 150.784l18.432 77.824q1.024 4.096 1.024 9.472t-1.024 9.984l-18.432 77.312q-1.024 4.608 1.024 7.424t6.656 2.816h24.064q4.608 0 9.472-2.304t7.424-5.376l45.568-59.392q24.064 4.608 49.92 7.424t50.432 2.816h6.656l-33.28 152.576q-1.024 4.096 1.536 6.912t6.656 2.816h34.816q4.096 0 8.448-2.56t6.4-6.144l88.576-153.6h84.48q15.872 0 31.488-3.584t27.648-9.216 19.456-12.8 6.912-14.848q0.512-7.68-6.912-14.848t-19.456-12.8-27.648-9.216-31.488-3.584h-84.992l-88.064-152.576q-2.048-3.584-6.4-6.144t-8.448-2.56h-34.816q-4.096 0-6.656 2.816t-1.536 6.912l33.28 151.552h-6.656q-24.576 0-50.432 3.072t-49.92 7.168l-45.568-59.392q-6.656-7.68-16.896-7.68h-24.064q-4.608 0-6.656 2.816t-1.024 6.912z" horiz-adv-x="484" />
<glyph unicode="&#xe008;" d="M180.224 50.432l-171.008 169.984 80.896 81.92 90.112-89.088 204.8 205.312 81.408-81.92z" horiz-adv-x="475" />
<glyph unicode="&#xe009;" d="M0 87.296q0 10.24 7.68 17.92l133.632 134.144-133.632 131.584q-7.68 7.68-7.68 17.92t7.68 17.408l26.112 26.624q7.68 7.68 17.92 7.68t17.92-7.68l132.608-132.608 132.608 132.608q7.168 7.68 17.408 7.68t17.92-7.68l26.624-26.624q7.168-7.168 7.168-17.408t-7.168-17.92l-133.632-134.144 133.632-131.584q7.168-7.68 7.168-17.664t-7.168-17.664l-26.624-26.624q-7.68-7.68-17.92-7.68t-17.408 7.68l-132.608 133.12-133.12-133.12q-7.68-7.68-17.664-7.68t-17.664 7.68l-26.112 26.112q-7.68 7.68-7.68 17.92z" horiz-adv-x="403" />
<glyph unicode="&#xe00a;" d="M0 239.36q0 38.912 14.848 76.032t44.544 66.816 66.816 44.288 76.032 14.592 76.032-14.592 66.816-44.288 44.288-66.816 14.592-76.032-14.592-76.032-44.288-66.816-66.816-44.544-76.032-14.848-76.032 14.848-66.816 44.544-44.544 66.816-14.848 76.032zM99.84 166.144l29.696-29.184q2.56-2.56 5.888-2.56t5.888 2.56l61.44 61.44 55.296-55.808q2.56-3.072 5.888-3.072t5.888 3.072l28.672 28.16q6.144 6.144 0 11.776l-55.808 55.808 61.952 61.952q5.632 6.144 0 11.776l-29.696 29.696q-6.144 6.144-11.776 0l-61.44-61.952-56.32 55.808q-5.632 6.144-11.776 0l-28.16-28.16q-2.56-3.072-2.56-6.144t2.56-6.144l55.808-55.296-61.44-61.952q-5.632-5.632 0-11.776z" horiz-adv-x="403" />
<glyph unicode="&#xe00b;" d="M0 238.848q0 41.984 15.872 78.592t43.264 64.256 64.256 43.52 78.848 15.872 78.592-15.872 64-43.52 43.264-64.256 15.872-78.592-15.872-78.592-43.264-64.256-64-43.52-78.592-15.872-78.848 15.872-64.256 43.52-43.264 64.256-15.872 78.592zM85.504 218.88q0-3.584 2.56-6.144t5.632-2.56h216.576q3.584 0 5.888 2.56t2.304 6.144v39.936q0 3.072-2.304 5.632t-5.888 2.56h-216.576q-3.072 0-5.632-2.56t-2.56-5.632v-39.936z" horiz-adv-x="403" />
<glyph unicode="&#xe00c;" d="M387.072 96v82.432h-379.392v91.136h379.392v82.432l122.368-128z" horiz-adv-x="517" />
<glyph unicode="&#xe00d;" d="M217.088 433.92q84.992 0 145.92-59.648t62.976-145.152h62.976l-94.208-104.96-94.208 104.96h73.216q-2.048 63.488-47.616 107.776t-109.056 44.288q-65.024 0-111.104-46.080t-46.080-111.104 46.080-111.36 111.104-46.336q50.176 0 92.672 30.72l35.84-38.4q-56.832-44.544-128.512-44.544-86.528 0-147.968 61.44t-61.44 148.48 61.44 148.48 147.968 61.44z" horiz-adv-x="496" />
<glyph unicode="&#xe00e;" d="M251.904 142.592l32.768 32.768-74.24 74.24 74.24 74.24-32.768 32.768-107.008-107.008zM460.8 249.6q0-62.464-30.976-115.456t-83.968-83.968-115.456-30.976-115.456 30.976-83.968 83.968-30.976 115.456 30.976 115.456 83.968 83.968 115.456 30.976 115.456-30.976 83.968-83.968 30.976-115.456z" horiz-adv-x="460" />
<glyph unicode="&#xe00f;" d="M208.896 142.592l107.008 107.008-107.008 107.008-32.768-32.768 74.24-74.24-74.24-74.24zM460.8 249.6q0-62.464-30.976-115.456t-83.968-83.968-115.456-30.976-115.456 30.976-83.968 83.968-30.976 115.456 30.976 115.456 83.968 83.968 115.456 30.976 115.456-30.976 83.968-83.968 30.976-115.456z" horiz-adv-x="460" />
<glyph unicode="&#xe010;" d="M245.76 368.384q-40.448 0-61.184-21.248t-20.736-61.696h66.56q0 29.696 14.848 29.696 13.824 0 13.824-29.696 0-33.792-35.84-33.792-5.632 0-10.24 0.512v-62.976h66.56v26.624q49.152 12.8 49.152 69.632 0 36.352-23.296 59.648t-59.648 23.296zM246.272 161.536q-15.872 0-27.392-12.032t-11.52-27.904 11.52-27.904 27.392-12.032 27.648 12.032 11.776 27.904-11.776 27.904-27.648 12.032zM246.272 439.552q86.016 0 147.2-60.672t61.184-147.2q0-85.504-61.184-146.688t-147.2-61.184q-86.528 0-147.2 61.184t-60.672 146.688q0 86.528 60.672 147.2t147.2 60.672z" horiz-adv-x="492" />
<glyph unicode="&#xe011;" d="M391.68 321.28q20.992 0 36.096-15.104t15.104-36.096v-148.48q0-20.992-15.104-36.096t-36.096-15.104h-353.28v71.68h332.8v107.52h-256v-56.32l-107.52 92.16 107.52 92.16v-56.32h276.48z" horiz-adv-x="450" />
<glyph unicode="&#xe012;" d="M55.296 75.008h92.16v92.16h-92.16v-92.16zM202.752 222.464v-202.752h-202.752v202.752h202.752zM313.344 75.008h92.16v92.16h-92.16v-92.16zM460.8 222.464v-202.752h-202.752v202.752h202.752zM55.296 333.056h92.16v92.16h-92.16v-92.16zM202.752 480.512v-202.752h-202.752v202.752h202.752zM313.344 333.056h92.16v92.16h-92.16v-92.16zM460.8 480.512v-202.752h-202.752v202.752h202.752z" horiz-adv-x="460" />
<glyph unicode="&#xe013;" d="M507.392 344.832q15.36 0 26.88-11.776t11.52-27.648v-187.904q0-15.872-11.52-27.648t-26.88-11.776h-38.912l17.408-78.336h-353.792l13.824 78.336h-42.496q-16.896 0-28.16 11.52t-11.264 27.904v187.904q0 16.384 11.264 27.904t28.16 11.52h49.664v60.416h16.896v65.536h270.336v-65.536h17.408v-60.416h49.664zM188.416 446.72v-148.992h233.984v148.992h-233.984zM130.56 247.552q11.776 0 19.968 8.192t8.192 19.456q0 10.752-8.192 19.2t-19.968 8.448q-10.752 0-19.2-8.448t-8.448-19.2q0-11.264 8.448-19.456t19.2-8.192zM162.816 23.808h290.304l-24.064 123.392h-247.808zM291.84 81.152v17.92h-71.168v-17.92h71.168zM393.216 81.152v17.92h-71.168v-17.92h71.168z" horiz-adv-x="609" />
<glyph unicode="&#xe014;" d="M0 297.216q0 29.696 15.616 55.808t42.24 45.568 62.464 30.976 76.8 11.52 76.8-11.52 62.464-30.976 41.984-45.568 15.36-55.808q0-30.208-15.36-56.32t-41.984-45.568-62.464-30.72-76.8-11.264q-9.728 0-18.688 0.768t-18.176 1.792q-18.432-14.336-39.424-24.576t-45.568-15.36q-10.752-2.56-21.504-3.072-6.144-1.024-8.704 5.632v0.512q-1.024 3.072 1.024 5.12l4.096 4.096q9.216 9.216 16.128 19.968t11.52 34.304q-35.84 19.456-56.832 49.152t-20.992 65.536zM164.352 109.824l6.656 4.096q6.656-1.024 13.312-1.024h12.8q50.176 0 93.44 14.080t75.264 38.912 50.176 58.624 18.176 72.704q0 10.24-1.536 20.992 24.576-19.456 38.4-44.032t13.824-53.248q0-35.328-20.992-64.768t-56.32-49.408q4.096-23.552 11.264-34.048t15.872-19.712q2.56-2.56 4.352-4.864t0.768-4.864q-0.512-3.072-3.328-5.12t-5.376-1.536q-5.632 1.024-10.752 1.792t-10.752 2.304q-47.616 10.24-84.48 38.912-9.216-1.024-18.432-1.792t-18.944-0.768q-35.328 0-66.304 8.704t-57.088 24.064z" horiz-adv-x="484" />
<glyph unicode="&#xe015;" d="M132.096 418.56h422.912v-323.072q0-22.528-16.64-39.68t-37.12-17.152h-367.616q-69.632 0-69.632 80.896v236.544h68.096v62.464zM132.096 119.552v201.728h-33.792v-201.728q0-43.52 16.384-43.52 17.408 0 17.408 43.52zM520.192 95.488v288.256h-353.792v-264.192q0-27.648-9.728-46.592h344.576q8.192 0 13.568 7.424t5.376 15.104zM302.592 164.608v-11.776h-81.408v11.776h81.408zM302.592 127.744v-11.264h-81.408v11.264h81.408zM334.848 144.128v130.048h136.192v-130.048h-136.192zM302.592 236.288v-11.776h-81.408v11.776h81.408zM302.592 199.424v-11.264h-81.408v11.264h81.408zM302.592 274.176v-11.776h-81.408v11.776h81.408zM233.472 311.040v22.528h212.992v-22.528h-212.992z" horiz-adv-x="618" />
<glyph unicode="&#xe016;" d="M340.48 352q10.752 0 18.176-7.424t7.424-18.176v-307.2q0-10.752-7.424-18.176t-18.176-7.424h-204.8q-10.752 0-18.176 7.424t-7.424 18.176v76.8h-76.8q-10.752 0-18.176 7.424t-7.424 18.176v307.2q0 10.752 7.424 18.176t18.176 7.424h204.8q10.752 0 18.176-7.424t7.424-18.176v-76.8h76.8zM58.88 147.2h51.2v179.712q0 10.752 7.168 17.92t17.92 7.168h77.312v51.2h-153.6v-256zM314.88 44.8v256h-153.6v-256h153.6z" horiz-adv-x="373" />
<glyph unicode="&#xe017;" d="M78.848 273.664q0 78.848 54.784 128.512 49.664 54.784 128.256 54.784t128.768-54.784q54.784-49.664 55.296-128.512 0-44.544-18.432-81.408l73.216-73.216q15.872-18.432 15.872-41.984t-18.432-39.424q-15.872-18.432-39.424-18.432t-41.984 15.872l-73.216 73.216q-36.864-18.432-81.408-18.432-78.848 0-128.512 55.296-54.784 49.664-54.784 128.512zM131.072 273.408q0-52.48 39.424-91.648t91.648-39.168 91.648 39.168 39.424 91.648-39.424 91.904-91.648 39.424-91.648-39.424-39.424-91.904zM183.296 247.040v52.736h52.736v52.736h52.224v-52.736h52.224v-52.736h-52.224v-52.224h-52.224v52.224h-52.736z" horiz-adv-x="628" />
<glyph unicode="&#xe018;" d="M78.848 273.664q0 78.848 54.784 128.512 49.664 54.784 128.256 54.784t128.768-54.784q54.784-49.664 55.296-128.512 0-44.544-18.432-81.408l73.216-73.216q15.872-18.432 15.872-41.984t-18.432-39.424q-15.872-18.432-39.424-18.432t-41.984 15.872l-73.216 73.216q-36.864-18.432-81.408-18.432-78.848 0-128.512 55.296-54.784 49.664-54.784 128.512zM131.072 273.664q0-57.856 39.424-91.648 39.424-39.424 91.648-39.424t91.648 39.168 39.424 91.648-39.424 91.904q-33.792 39.424-91.648 39.424-52.736 0-91.904-39.168t-39.168-91.904zM183.296 247.040v52.736h157.184v-52.736h-157.184z" horiz-adv-x="628" />
<glyph unicode="&#xe019;" d="M296.448 260.864l-120.32-115.2q-8.704-8.704-19.968-8.704t-19.968 8.704q-110.080 104.448-120.32 115.2-7.68 8.192-7.936 20.48t7.936 20.992q18.944 18.944 40.448 0l99.84-96.256 99.84 96.256q21.504 18.944 40.448 0 8.192-8.704 7.936-20.992t-7.936-20.48z" horiz-adv-x="312" />
<glyph unicode="&#xe01a;" d="M0 238.080q0 9.984 7.68 17.664l176.64 177.152q7.68 7.68 17.92 7.68t17.408-7.68l26.624-26.624q7.68-7.168 7.68-17.408t-7.68-17.92l-133.632-134.144 133.632-131.584q7.68-7.68 7.68-17.664t-7.68-17.664l-26.624-26.624q-7.168-7.68-17.408-7.68t-17.92 7.68l-176.64 177.152q-7.68 7.68-7.68 17.664z" horiz-adv-x="253" />
<glyph unicode="&#xe01b;" d="M0 87.808q0 10.24 7.68 17.92l133.632 133.632-133.632 132.096q-7.68 7.68-7.68 17.664t7.68 17.152l26.112 27.136q7.68 7.68 17.92 7.68t17.92-7.68l176.64-177.152q7.68-7.68 7.68-17.92t-7.68-17.92l-176.64-176.64q-7.68-7.68-17.92-7.68t-17.92 7.68l-26.112 26.112q-7.68 7.68-7.68 17.92z" horiz-adv-x="253" />
<glyph unicode="&#xe01c;" d="M296.448 187.136q7.68-8.192 7.936-20.48t-7.936-20.992q-18.944-18.944-40.448 0l-99.84 96.256-99.84-96.256q-21.504-18.944-40.448 0-8.192 8.704-7.936 20.992t7.936 20.48l120.32 115.2q8.704 8.704 19.968 8.704t19.968-8.704q110.080-104.448 120.32-115.2z" horiz-adv-x="312" />
<glyph unicode="&#xe01d;" d="M108.544 195.328l-108.544 108.544h217.088z" horiz-adv-x="216" />
<glyph unicode="&#xe01e;" d="M217.088 195.328h-217.088l108.544 108.544z" horiz-adv-x="216" />
<glyph unicode="&#xe01f;" d="M57.856 364.288l115.2-120.32q8.704-8.704 8.704-19.968t-8.704-19.968q-104.448-110.080-115.2-120.32-8.192-7.68-20.48-7.936t-20.992 7.936q-18.944 18.944 0 40.448l96.256 99.84-96.256 99.84q-18.944 21.504 0 40.448 8.704 8.192 20.992 7.936t20.48-7.936z" horiz-adv-x="189" />
<glyph unicode="&#xe020;" d="M131.584 364.288q8.192 7.68 20.48 7.936t20.992-7.936q18.944-18.944 0-40.448l-96.256-99.84 96.256-99.84q18.944-21.504 0-40.448-8.704-8.192-20.992-7.936t-20.48 7.936l-115.2 120.32q-8.704 8.704-8.704 19.968t8.704 19.968q104.448 110.080 115.2 120.32z" horiz-adv-x="189" />
<glyph unicode="&#xe021;" d="M55.296 75.008h92.16v92.16h-92.16v-92.16zM202.752 222.464v-202.752h-202.752v202.752h202.752zM460.8 93.44v-73.728h-202.752v73.728h202.752zM55.296 333.056h92.16v92.16h-92.16v-92.16zM202.752 480.512v-202.752h-202.752v202.752h202.752zM460.8 222.464v-73.728h-202.752v73.728h202.752zM460.8 351.488v-73.728h-202.752v73.728h202.752zM460.8 480.512v-73.728h-202.752v73.728h202.752z" horiz-adv-x="460" />
<glyph unicode="&#xe022;" d="M460.8 93.44v-73.728h-460.8v73.728h460.8zM460.8 222.464v-73.728h-460.8v73.728h460.8zM460.8 351.488v-73.728h-460.8v73.728h460.8zM460.8 480.512v-73.728h-460.8v73.728h460.8z" horiz-adv-x="460" />
<glyph unicode="&#xe023;" d="M0 238.848q0 41.984 15.872 78.592t43.264 64.256 64.256 43.52 78.848 15.872 78.592-15.872 64-43.52 43.264-64.256 15.872-78.592-15.872-78.592-43.264-64.256-64-43.52-78.592-15.872-78.848 15.872-64.256 43.52-43.264 64.256-15.872 78.592zM85.504 218.88q0-3.584 2.56-6.144t5.632-2.56h79.36v-86.528q0-4.096 2.304-6.4t5.888-2.304h41.984q3.072 0 5.632 2.304t2.56 6.4v86.528h78.848q3.584 0 5.888 2.56t2.304 6.144v39.936q0 3.072-2.304 5.632t-5.888 2.56h-78.848v87.040q0 4.096-2.56 6.4t-5.632 2.304h-41.984q-3.584 0-5.888-2.304t-2.304-6.4v-87.040h-79.36q-3.072 0-5.632-2.56t-2.56-5.632v-39.936z" horiz-adv-x="403" />
<glyph unicode="&#xe024;" d="M384.512 110.336q48.128-17.408 76.288-34.304t28.16-28.672v-53.76h-481.28v53.76q0 11.776 28.16 28.672t76.288 34.304q47.616 17.408 65.536 35.328t17.92 48.64q0 10.24-5.12 16.128t-12.288 16.128-10.752 29.696q-1.024 6.144-4.608 8.96t-7.424 4.096-7.168 8.704-4.352 22.272q0 7.68 2.304 13.056t4.352 6.912l2.56 1.536q-4.608 25.6-6.656 45.056-1.024 10.752 3.072 24.32t14.080 28.416 32 24.832 52.736 9.984 52.736-9.984 32-24.832 14.080-28.416 3.072-24.32l-6.656-45.056q9.216-4.096 9.216-21.504-1.024-14.848-4.352-22.272t-7.168-8.704-7.424-4.096-4.608-8.96q-3.584-19.456-10.752-29.696t-12.288-16.128-5.12-16.128q0-30.72 17.92-48.64t65.536-35.328z" horiz-adv-x="496" />
<glyph unicode="&#xe025;" d="M115.712 201.472v46.080h143.36v-46.080h-143.36zM314.88 454.4q20.992 0 36.096-15.104t15.104-36.096v-358.4q0-20.992-15.104-36.096t-36.096-15.104h-256q-20.992 0-36.096 15.104t-15.104 36.096v358.4q0 20.992 15.104 36.096t36.096 15.104h256zM314.88 44.8v358.4h-256v-358.4h256zM258.56 347.392v-44.544h-143.36v44.544h143.36zM258.56 146.688v-45.056h-143.36v45.056h143.36z" horiz-adv-x="373" />
<glyph unicode="&#xe026;" d="M0 66.816v295.936q0 12.288 8.96 21.248t21.248 8.96h19.456v-37.376q0-14.848 10.496-25.344t25.344-10.496h8.192q15.36 0 26.112 10.496t10.752 25.344v37.376h31.232v-37.376q0-14.848 10.496-25.344t25.344-10.496h8.704q15.36 0 25.856 10.496t10.496 25.344v37.376h31.232v-37.376q0-14.848 10.752-25.344t25.6-10.496h8.192q15.36 0 25.856 10.496t10.496 25.344v37.376h19.456q12.288 0 20.992-8.96t8.704-21.248v-295.936q0-12.288-8.704-21.248t-20.992-8.96h-344.064q-12.288 0-21.248 8.96t-8.96 21.248zM40.448 77.056h323.584v214.528h-323.584v-214.528zM69.632 355.584v69.12q0 6.656 4.864 11.52t11.008 4.864h8.192q7.168 0 11.776-4.864t4.608-11.52v-69.12q0-6.144-4.608-10.752t-11.776-4.608h-8.192q-6.144 0-11.008 4.608t-4.864 10.752zM95.232 122.112q0 18.944 10.752 31.232t23.552 21.504l23.552 16.896q10.752 8.192 10.752 19.456 0 10.752-6.144 15.616t-15.36 4.864q-6.144 0-11.264-2.304t-8.704-6.4q-2.048-2.048-3.84-4.096t-3.328-4.608l-18.432 12.288q4.096 7.168 11.264 14.336 5.632 6.144 14.592 10.496t21.76 4.352q18.944 0 33.024-11.264t14.080-31.744q0-11.264-4.864-19.456t-12.544-15.104-16.384-12.544l-15.872-10.24q-7.68-5.632-12.8-11.52t-5.12-13.568h49.664v18.432h22.528v-39.424h-99.84q-0.512 3.584-0.768 6.656t-0.256 6.144zM182.272 355.584v69.12q0 6.656 4.608 11.52t10.752 4.864h8.704q6.656 0 11.52-4.864t4.864-11.52v-69.12q0-6.144-4.864-10.752t-11.52-4.608h-8.704q-6.144 0-10.752 4.608t-4.608 10.752zM214.016 214.784v37.888h100.864v-17.92l-62.976-125.44h-27.648l57.856 114.176q1.536 4.608 3.072 6.144l1.536 2.048v0.512q-1.536 0-2.56-0.512h-47.616v-16.896h-22.528zM294.4 355.584v69.12q0 6.656 4.608 11.52t11.264 4.864h8.192q6.656 0 11.52-4.864t4.864-11.52v-69.12q0-6.144-4.864-10.752t-11.52-4.608h-8.192q-6.656 0-11.264 4.608t-4.608 10.752z" horiz-adv-x="403" />
<glyph unicode="&#xe027;" d="M131.072 37.632v157.184h104.96v-157.184h-104.96zM262.144 40.192v364.544h104.96v-364.544h-104.96zM393.216 40.192v259.584h104.96v-259.584h-104.96z" horiz-adv-x="628" />
<glyph unicode="&#xe028;" d="M401.92 315.648l-138.24-130.048-138.24 130.048h76.8v125.952h122.88v-125.952h76.8zM502.784 146.176q9.216-5.12 13.824-16.128t2.048-21.248l-14.336-78.336q-2.048-9.728-11.52-16.896t-20.224-7.168h-417.792q-10.752 0-20.224 7.168t-11.52 16.896l-14.336 78.336q-2.56 10.24 2.048 21.248t13.824 16.128l81.408 54.784h50.176l-87.040-67.072h91.136q4.608 0 6.144-3.072l20.48-57.344h153.6l20.48 57.344q1.536 3.072 6.144 3.072h91.136l-87.040 67.072h50.176z" horiz-adv-x="527" />
<glyph unicode="&#xe029;" d="M402.944 84.224q17.408-17.408 3.584-31.232l-24.064-24.064q-7.168-7.168-17.152-7.168t-17.152 7.168l-97.28 97.28q-36.864-21.504-79.872-21.504-65.536 0-114.432 48.896t-48.896 114.432 46.336 111.872 111.872 46.336 114.432-48.896 48.896-114.432q0-43.008-23.040-81.92zM56.32 268.032q0-45.056 34.816-79.872t79.872-34.816 77.312 32.256 32.256 77.312-34.816 79.872-79.872 34.816-77.312-32.256-32.256-77.312z" horiz-adv-x="419" />
<glyph unicode="&#xe02a;" d="M157.184 63.744v183.296q0 15.872 8.192 18.432l15.36 8.192h29.184q0 31.232 2.56 44.544 0 10.24 5.12 41.984 7.68 20.48 18.432 36.864 23.552 33.792 78.592 33.792t78.592-33.792q10.24-15.872 18.432-36.864 5.12-31.744 5.12-41.984 3.072-13.312 2.56-44.544h28.672l15.872-8.192q8.192-2.56 8.192-18.432v-183.296q0-26.112-26.112-26.112h-262.656q-26.112 0-26.112 26.112zM262.144 273.664h104.96v52.224q0 20.992-15.872 36.864t-36.608 15.872-36.608-15.872-15.872-36.864v-52.224z" horiz-adv-x="628" />
<glyph unicode="&#xe02b;" d="M78.848 63.744v236.032q0 20.992 15.616 36.864t36.608 15.872h236.032q20.992 0 36.608-15.872t15.616-36.864v-236.032q0-20.992-15.616-36.608t-36.608-15.616h-236.032q-20.992 0-36.608 15.616t-15.616 36.608zM131.072 63.744h236.032v236.032h-236.032v-236.032zM157.184 378.624v26.112q0 20.48 15.616 36.352t37.12 15.872h262.144q20.48 0 36.352-15.616t15.872-36.608v-262.144q0-36.864-26.112-44.544-24.064-8.192-52.224-8.192v52.736h26.112v262.144h-262.144v-26.112h-52.736z" horiz-adv-x="628" />
<glyph unicode="&#xe02c;" d="M0 219.904v37.888q0 10.24 7.168 17.408t17.408 7.168h133.632v133.12q0 10.752 7.168 18.176t17.92 7.424h37.888q10.24 0 17.408-7.424t7.168-17.664v-133.632h133.632q10.24 0 17.408-7.168t7.168-17.408v-37.888q0-10.24-7.168-17.408t-17.408-7.168h-133.632v-133.12q0-10.752-7.168-18.176t-17.408-7.424h-37.888q-10.24 0-17.664 7.424t-7.424 17.664v133.632h-133.12q-10.752 0-17.92 6.912t-7.168 17.664z" horiz-adv-x="403" />
<glyph unicode="&#xe02d;" d="M220.285 360.024h273.715v-325.893h-476v379.738h125.181l37.767-37.602c10.449-10.403 24.593-16.243 39.337-16.243z" />
<glyph unicode="&#xe02e;" d="M460.013 31.821h-414.285l-27.728 216.986h476l-33.987-216.986zM457.029 289.199v89.311l-233.354 0.001c-10.258 0-20.098 4.059-27.373 11.289l-26.548 26.379h-115.938v-126.98h403.213z" />
<glyph unicode="&#xe02f;" d="M426.655 480h-341.31c-46.94 0-85.345-38.392-85.345-85.329v-341.328c0-46.938 38.405-85.343 85.345-85.343h341.311c46.969 0 85.344 38.405 85.344 85.343v341.328c0 46.937-38.375 85.329-85.345 85.329zM128 352h256c4.569 0 9.002-0.981 13.072-2.831l-141.072-164.584-141.072 164.585c4.070 1.848 8.503 2.83 13.072 2.83zM96 128v192c0 0.67 0.028 1.336 0.070 2l93.832-109.47-92.799-92.8c-0.722 2.669-1.103 5.443-1.103 8.27zM384 96h-256c-2.827 0-5.601 0.381-8.27 1.103l91.059 91.059 45.211-52.748 45.212 52.747 91.058-91.059c-2.67-0.721-5.443-1.102-8.27-1.102zM416 128c0-2.827-0.381-5.6-1.103-8.27l-92.799 92.799 93.832 109.471c0.042-0.664 0.070-1.33 0.070-2v-192z" />
<glyph unicode="&#xe032;" d="M432-32h-352c-8.848 0-16 7.152-16 16v336h144c8.848 0 16 7.168 16 16v144h208c8.848 0 16-7.168 16-16v-480c0-8.848-7.152-16-16-16zM192 480v-128h-128l128 128z" />
<glyph unicode="&#xe033;" d="M84.828-31.294h340.865v383.46h-340.865v-383.46zM326.286 281.151h28.378v-255.633h-28.378v255.633zM241.068 281.151h28.378v-255.633h-28.378v255.633zM155.836 281.151h28.42v-255.633h-28.42v255.633zM383.084 394.789h-340.844c0 23.518 19.042 42.609 42.588 42.609h99.428v42.602h142.030v-42.602h99.4c23.546 0 42.63-19.084 42.63-42.609h-85.232z" />
<glyph unicode="&#xe035;" d="M480 416h-448c-17.6 0-32-14.4-32-32v-224c0-17.6 14.4-32 32-32h64v-96l72 96h312c17.6 0 32 14.4 32 32v224c0 17.6-14.4 32-32 32zM160 224h-64v64h64v-64zM288 224h-64v64h64v-64zM416 224h-64v64h64v-64z" />
<glyph unicode="&#xe036;" d="M256.026-11.52c130.074 0 235.494 105.446 235.494 235.52s-105.421 235.52-235.494 235.52c-130.1 0-235.546-105.446-235.546-235.52s105.446-235.52 235.546-235.52zM256.026 408.32c101.811 0 184.294-82.534 184.294-184.32s-82.509-184.32-184.294-184.32c-101.837 0-184.346 82.509-184.346 184.32s82.509 184.32 184.346 184.32zM209.92 125.44h92.186v104.704h57.6l-103.68 97.536-103.706-97.536h57.6v-104.704z" />
<glyph unicode="&#xe037;" d="M420.885 279.787l-34.176 59.115-77.12-22.059-19.456 77.824h-68.266l-19.456-77.824-77.142 22.058-34.133-59.115 57.664-55.744-57.685-55.765 34.155-59.157 77.141 22.080 19.456-77.867h68.266l19.456 77.845 77.163-22.059 34.133 59.115-57.707 55.787 57.707 55.766zM256 178.496c-25.131 0-45.525 20.373-45.525 45.504s20.394 45.504 45.525 45.504c25.152 0 45.483-20.373 45.483-45.504s-20.31-45.504-45.483-45.504z" />
<glyph unicode="&#xe038;" d="M371.2 377.6h-230.4c-25.446 0-38.4-7.834-38.4-33.28v-240.64c0-25.446 12.954-33.28 38.4-33.28h230.4c25.446 0 38.4 7.834 38.4 33.28v240.64c0 25.446-12.954 33.28-38.4 33.28z" />
<glyph unicode="&#xe039;" d="M53.968 112.464l90.496-90.496 158.4 158.368 113.136-113.12v316.784h-316.784l113.136-113.136z" />
<glyph unicode="&#xe03a;" d="M367.536 21.968l90.496 90.496-158.368 158.4 113.12 113.136h-316.784v-316.784l113.136 113.136z" />
<glyph unicode="&#xe03b;" d="M458.032 335.536l-90.496 90.496-158.4-158.368-113.136 113.12v-316.784h316.784l-113.136 113.136z" />
<glyph unicode="&#xe03c;" d="M144.464 426.032l-90.496-90.496 158.368-158.4-113.12-113.136h316.784v316.784l-113.136-113.136z" />
<glyph unicode="&#xe03d;" d="M320 448v-224h160l-224-224-224 224h160v224z" />
<glyph unicode="&#xe03e;" d="M192 0v224h-160l224 224 224-224h-160v-224z" />
<glyph unicode="&#xe03f;" d="M480 160h-224v-160l-224 224 224 224v-160h224z" />
<glyph unicode="&#xe040;" d="M32 288h224v160l224-224-224-224v160h-224z" />
<glyph unicode="&#xe041;" d="M0.256 287.232q2.304 6.912 13.568 8.96l128.512 18.432 56.832 116.224q5.632 10.752 12.8 10.752t12.288-10.752l57.856-116.224 127.488-18.432q11.776-2.048 14.080-8.96t-5.888-15.104l-92.672-90.624 21.504-126.976q2.048-11.776-3.84-16.128t-16.128 1.792l-114.688 59.392-114.176-59.392q-11.264-6.144-17.152-1.792t-3.328 16.128l22.016 126.976-92.672 90.624q-8.704 8.192-6.4 15.104z" horiz-adv-x="423" />
<glyph unicode="&#xe042;" d="M0.256 287.232q2.304 6.912 13.568 8.96l128.512 17.92 56.832 116.736q5.12 10.24 12.544 10.24t12.544-10.24l57.856-116.736 127.488-17.92q11.776-2.048 14.080-8.96t-5.888-15.104l-92.672-90.624 21.504-126.976q1.536-8.704-1.28-13.312t-8.448-4.608q-3.584 0-10.24 2.56l-114.688 60.416-114.176-60.416q-6.656-2.56-10.24-2.56-6.144 0-8.96 4.608t-1.28 13.312l22.016 126.976-92.672 90.624q-8.704 8.192-6.4 15.104zM168.96 78.592l42.496 67.072 19.456-9.728 66.56-35.84-12.288 75.264-4.096 20.992 15.36 14.336 54.272 52.736-74.752 10.752-20.992 3.584-9.728 18.944-33.28 67.584v-67.072l-0.512-86.784v-64.768z" horiz-adv-x="423" />
<glyph unicode="&#xe043;" d="M437.011 405.010c-46.326 46.328-110.318 74.99-181.011 74.99-109.744 0-203.345-69.064-239.749-166.094l59.938-22.477c27.302 72.773 97.503 124.571 179.811 124.571 53.020 0 101.010-21.5 135.753-56.247l-71.753-71.753h192v192l-74.989-74.99zM256 32c-53.020 0-101.013 21.496-135.756 56.244l71.756 71.756h-192v-192l74.997 74.997c46.323-46.331 110.309-74.997 181.003-74.997 109.745 0 203.346 69.064 239.75 166.094l-59.938 22.477c-27.302-72.773-97.503-124.571-179.812-124.571z" />
<glyph unicode="&#xe044;" d="M0 480v-150.588h150.588v150.588h-150.588zM361.412 299.294v-150.588h150.588v150.588h-150.588zM180.706 299.294v-150.588h150.588v150.588h-150.588zM180.706 118.588v-150.588h150.588v150.588h-150.588zM361.412 118.588v-150.588h150.588v150.588h-150.588z" />
<glyph unicode="&#xe045;" d="M448 384h-384v-320h384v320zM512 448v0-448h-512v448h512zM416 96h-320v64l96 160 131.5-160 92.5 64v-32zM320 304c0-26.51 21.49-48 48-48s48 21.49 48 48c0 26.51-21.49 48-48 48s-48-21.49-48-48z" />
<glyph unicode="&#xe046;" d="M253.714 141.714l33.143 33.143-43.429 43.429-33.143-33.143v-16h27.429v-27.429h16zM379.429 347.429q-4.571 4.571-9.429-0.286l-100-100q-4.857-4.857-0.286-9.429t9.429 0.286l100 100q4.857 4.857 0.286 9.429zM402.286 177.714v-54.286q0-34-24.143-58.143t-58.143-24.143h-237.714q-34 0-58.143 24.143t-24.143 58.143v237.714q0 34 24.143 58.143t58.143 24.143h237.714q18 0 33.429-7.143 4.286-2 5.143-6.571 0.857-4.857-2.571-8.286l-14-14q-4-4-9.143-2.286-6.571 1.714-12.857 1.714h-237.714q-18.857 0-32.286-13.429t-13.429-32.286v-237.714q0-18.857 13.429-32.286t32.286-13.429h237.714q18.857 0 32.286 13.429t13.429 32.286v36q0 3.714 2.571 6.286l18.286 18.286q4.286 4.286 10 2t5.714-8.286zM374.857 388.571l82.286-82.286-192-192h-82.286v82.286zM501.714 350.857l-26.286-26.286-82.286 82.286 26.286 26.286q8 8 19.429 8t19.429-8l43.429-43.429q8-8 8-19.429t-8-19.429z" />
<glyph unicode="&#xe047;" d="M426.667 416v42.667h-128v-42.667h42.666v-384h-42.666v-42.667h128v42.667h-42.667v384zM298.667 366.037c0 2.219-4.16 4.885-6.827 6.784-11.755 8.768-24.747 14.485-39.168 17.131-14.421 2.667-31.253 3.989-50.624 3.989-14.037 0-28.459-2.219-43.2-6.741-14.763-4.501-27.307-9.963-37.675-16.448-12.010-7.595-21.738-16.256-29.226-25.92-7.488-9.685-11.243-19.84-11.243-30.443 0-10.155 2.709-19.307 8.128-27.499s13.888-12.267 25.408-12.267c12.907 0 22.997 3.328 30.272 10.048 7.275 6.656 10.901 14.037 10.901 22.123 0 7.595-1.109 15.893-3.285 24.896-2.219 8.981-3.285 15.787-3.285 20.395 3.691 3.925 10.091 7.659 19.2 11.243 9.088 3.584 18.965 5.355 29.568 5.355 15.445 0 27.371-3.157 35.797-9.493 8.427-6.357 14.933-13.781 19.541-22.315 4.139-7.616 3.051-24.875 3.051-24.875v-50.88c0-5.995-28.949-14.293-60.672-24.896s-51.008-17.856-61.397-21.781c-8.278-3.243-16.256-7.574-25.728-12.971-9.451-5.44-16.64-11.584-22.421-18.517-7.381-8.299-12.693-17.621-16.384-27.989s-5.398-22.123-5.398-35.286c0-25.365 8.299-45.888 24.789-61.568 16.469-15.659 37.547-23.531 63.125-23.531 24.213 0 44.907 9.493 62.080 18.24 17.217 8.811 33.302 21.846 48.278 43.179h2.091c3.008-21.333 9.685-33.515 20.395-41.941l13.909-0.726v312.704zM261.589 112.491c-8.533-10.859-19.029-20.245-31.467-28.245-12.459-7.957-26.88-11.968-43.243-11.968-15.467 0-28.181 4.501-38.208 13.547-10.048 9.003-15.040 23.083-15.040 42.24 0 14.784 3.328 27.584 10.048 38.315 6.656 10.773 15.787 20.053 27.285 27.904 12.715 8.341 26.411 15.253 41.173 20.821 14.741 5.547 29.824 10.624 49.451 16.363l0.001-118.977z" />
<glyph unicode="&#xe048;" d="M385.758 320c9.063 6.44 17.756 13.608 25.722 21.574 16.701 16.701 27.873 37.25 31.456 57.861 3.929 22.593-1.836 43.57-15.815 57.55-11.15 11.149-26.255 17.043-43.682 17.043-24.816 0-50.961-11.912-71.73-32.681-33.238-33.238-52.613-79.119-63.038-111.861-7.72 32.901-23.103 77.322-53.009 107.229-16.047 16.046-36.557 24.285-55.923 24.285-15.827 0-30.89-5.502-42.13-16.743-24.993-24.994-21.616-68.893 7.543-98.052 10.396-10.396 22.549-19.031 35.36-26.206h-108.512v-128h32v-224h384v224.001h32v128h-94.242zM337.163 415.891c13.862 13.862 31.161 22.137 46.275 22.137 5.35 0 12.854-1.127 18.225-6.499 13.015-13.014 5.706-43.154-15.64-64.499-21.973-21.973-51.53-37.084-77.216-47.030h-25.336c9.284 28.774 26.029 68.228 53.692 95.891zM116.967 399.555c-0.351 4.56-0.025 13.124 6.098 19.247 5.122 5.122 11.894 6.198 16.674 6.198v0c10.629 0 21.734-5.008 30.466-13.74 16.936-16.936 30.883-43.886 40.334-77.938 0.255-0.92 0.504-1.835 0.748-2.743-0.908 0.243-1.823 0.492-2.743 0.748-34.052 9.452-61.001 23.399-77.937 40.335-7.914 7.913-12.885 18.080-13.64 27.893zM224 0h-128v208h128v-208zM224 224h-160v64h160v-64zM416 0h-128v208h128v-208zM448 224h-160v64h160v-64z" />
<glyph unicode="&#xe049;" d="M365.285 224q0 39.714-20.286 74.286l-200.286-200.286q34.571-20.286 74.286-20.286 29.714 0 56.714 11.571t46.714 31.286 31.286 46.714 11.571 56.714zM93 149.714l200.286 200.286q-34.571 20.286-74.286 20.286-29.714 0-56.714-11.571t-46.714-31.286-31.286-46.714-11.571-56.714q0-39.714 20.286-74.286zM438.428 224q0-59.714-29.429-110.143t-79.857-79.857-110.143-29.429-110.143 29.429-79.857 79.857-29.429 110.143 29.429 110.143 79.857 79.857 110.143 29.429 110.143-29.429 79.857-79.857 29.429-110.143z" horiz-adv-x="438" />
<glyph unicode="&#xe04a;" d="M147.187 156.373c0 0 160.606 245.009 332.109 304.896 0 0-62.605-190.558-274.944-359.334l-57.165 54.438zM141.687 144.030l52.907-51.076-27.499-33.135c0 0-22.033 29.154-47.962 45.184-13.5 8.363 22.554 39.027 22.554 39.027zM60.079 52.582c0 0 42.189 74.18 86.707 13.589 0 0 13.269-100.489-142.101-88.845 0 0.004 55.966 51.294 55.394 75.255zM592.808 89.45c5.357 0 10.342 4.344 11.070 9.653 0 0 1.024 7.461 1.024 16.333s-1.024 16.333-1.024 16.333c-0.732 5.311-5.713 9.653-11.070 9.653h-27.685c-5.36 0-10.927 3.418-12.367 7.593-1.441 4.175-3.423 17.57 0.368 21.358l19.57 19.57c3.788 3.791 4.080 10.258 0.648 14.376l-23.025 23.030c-4.118 3.435-10.583 3.142-14.376-0.649l-19.57-19.57c-3.788-3.791-10.103-5.317-14.026-3.395-3.925 1.923-14.924 10.032-14.924 15.392v27.685c0 5.36-4.344 10.342-9.653 11.073 0 0-7.461 1.027-16.333 1.027s-16.333-1.027-16.333-1.027c-5.311-0.729-9.656-5.713-9.656-11.073v-27.685c0-5.36-3.415-10.924-7.593-12.367-4.178-1.44-17.57-3.423-21.36 0.367l-19.569 19.569c-3.79 3.791-10.258 4.084-14.373 0.652l-23.028-23.028c-3.435-4.118-3.142-10.585 0.648-14.376l19.567-19.57c3.791-3.791 5.32-10.103 3.395-14.026s-10.032-14.924-15.392-14.924h-27.682c-5.36 0-10.342-4.344-11.073-9.653 0 0-1.027-7.461-1.027-16.333 0-8.875 1.027-16.333 1.027-16.333 0.729-5.311 5.713-9.653 11.073-9.653h27.685c5.36 0 10.924-3.415 12.365-7.593 1.44-4.175 3.423-17.567-0.367-21.357l-19.567-19.567c-3.791-3.791-4.083-10.258-0.648-14.376l23.025-23.030c4.118-3.432 10.583-3.142 14.373 0.648l19.57 19.57c3.791 3.788 10.103 5.317 14.029 3.395s14.924-10.032 14.924-15.392v-27.685c0-5.357 4.344-10.342 9.656-11.070 0 0 7.458-1.024 16.333-1.024s16.333 1.024 16.333 1.024c5.311 0.732 9.653 5.713 9.653 11.070v27.685c0 5.36 3.415 10.927 7.593 12.367s17.57 3.42 21.36-0.368l19.567-19.57c3.791-3.788 10.258-4.080 14.376-0.648l23.025 23.022c3.432 4.118 3.142 10.583-0.651 14.376l-19.567 19.567c-3.791 3.791-5.32 10.103-3.395 14.029 1.923 3.926 10.032 14.924 15.392 14.924h27.688zM461.432 62.922c-29.005 0-52.517 23.51-52.517 52.517 0 29.002 23.512 52.517 52.517 52.517s52.517-23.512 52.517-52.517c0-29.005-23.512-52.517-52.517-52.517z" horiz-adv-x="618" />
<glyph unicode="&#xe600;" d="M256 476.16c-135.731 0-245.76-110.029-245.76-245.76s110.029-245.76 245.76-245.76 245.76 110.029 245.76 245.76-110.029 245.76-245.76 245.76zM355.942 274.816c0.103-2.074 0.154-4.173 0.154-6.272 0-63.949-48.691-137.702-137.728-137.702-27.315 0-52.787 7.987-74.189 21.76 3.789-0.461 7.655-0.666 11.546-0.666 22.681 0 43.546 7.731 60.135 20.736-21.171 0.384-39.066 14.387-45.235 33.587 2.944-0.563 5.99-0.87 9.088-0.87 4.429 0 8.704 0.589 12.749 1.69-22.119 4.454-38.835 24.013-38.835 47.463 0 0.205 0 0.41 0.025 0.589 6.528-3.609 14.003-5.786 21.913-6.042-12.953 8.678-21.504 23.475-21.504 40.294 0 8.883 2.381 17.203 6.554 24.345 23.859-29.312 59.546-48.589 99.763-50.585-0.819 3.533-1.255 7.219-1.255 11.034 0 26.727 21.683 48.41 48.409 48.41 13.926 0 26.496-5.863 35.328-15.283 11.034 2.15 21.401 6.169 30.745 11.725-3.635-11.29-11.289-20.787-21.299-26.778 9.805 1.178 19.123 3.763 27.801 7.629-6.477-9.702-14.72-18.227-24.166-25.063z" />
<glyph unicode="&#xe601;" d="M256 476.16c-135.731 0-245.76-110.029-245.76-245.76s110.029-245.76 245.76-245.76 245.76 110.029 245.76 245.76-110.029 245.76-245.76 245.76zM314.189 306.329h-36.941c-4.352 0-9.216-5.76-9.216-13.415v-26.675h46.183v-38.042h-46.183v-114.202h-43.623v114.202h-39.526v38.016h39.526v22.375c0 32.103 22.272 58.189 52.839 58.189h36.941v-40.448z" />
<glyph unicode="&#xe602;" d="M256 483.2l-117.76-186.88h235.495l-117.735 186.88zM256.026-28.8l117.734 186.88-235.52 0.026 117.785-186.906z" />
<glyph unicode="&#xe603;" d="M426.67 480h-341.327c-46.938 0-85.343-38.406-85.343-85.344v-341.314c0-46.967 38.406-85.342 85.344-85.342h341.326c46.938 0 85.33 38.374 85.33 85.342v341.314c0 46.938-38.392 85.344-85.33 85.344zM139.472 64.376c-23.985 0-43.472 19.346-43.472 43.314 0 23.842 19.486 43.406 43.472 43.406 24.079 0 43.53-19.564 43.53-43.406-0.001-23.968-19.452-43.314-43.53-43.314zM248.734 64.002c0 40.905-15.904 79.409-44.73 108.222-28.857 28.875-67.188 44.813-107.952 44.813v62.593c118.826 0 215.563-96.721 215.563-215.627l-62.881-0.001zM359.814 64.002c0 145.531-118.329 263.97-263.688 263.97v62.624c180.001 0 326.473-146.562 326.473-326.596l-62.785 0.002z" />
</font>
</defs>
</svg>
